Паутина-4 / Сезон: 4 Серии: 1-16 из 16 (Андрей Хрулев) [2011, Детектив, SATRip] 

Цитировать
Паутина-4
Год выпуска: 2011
Производство: Яуза-Фильм, Форвард-Фильм
Жанр: Детектив
Продолжительность: ~ 00:45:00 серия
Субтитры: Отсутствуют
Режиссёр: Андрей Хрулев
В ролях: Олег Харитонов, Олег Филипчик, Юрий Брешин, Владимир Никитин, Юлия Михайлова, Вячеслав Бондарчук, Дмитрий Дорохов, Алла Малкова (Мараш), Олег Морозов, Виктор Фалалеев, Дмитрий Буренков, Максим Глотов, Ксения Дементьева, Дмитрий Комов, Арсений Спасибо, Наталья Винтилова, Иннокентий Тарабара
Описание: По мотивам произведений Вячеслава Жукова.
Продолжение сериала "Паутина". Начальник убойного отдела майор Туманов с капитаном Грековым разгадывают новые загадки очередного убийства. Снова Туманову угрожает опасность, снова Туманову приходится быстро думать и принимать решения.
Эта способность уже вошла в привычку, и в каждом своем движении Туманов нацелен на решение проблемы. Туманов и Греков в новом сезоне занимаются расследованием череды серийных убийств, раскрывают кровавую аферу банковских чиновников, выходя на след подпольного казино ставкой, которого является человеческая жизнь, и сталкиваются с нелегальной торговлей золотом. Мегаполис по-прежнему опутан паутиной из криминальных связей, с которыми приходится бороться Федору Туманову.
Доп. информация: Спасибо CLIPMAN за предоставленный DVB
Любая реклама ОТСУТСТВУЕТ!!!
Новые серии будут добавлены по мере появления DVB
Все раздачи сериала
Сэмпл
Релиз от:
Качество: SATRip
Формат: AVI
Видео кодек: XviD
Аудио кодек: MP3
Видео: 704x384 (1.83:1) (16:9), 25 fps, XviD MPEG-4 codec, BitRate: ~1495 Kbps, 0.192 bit/pixel
Аудио: 48000 kHz, MPEG 1 or 2 Audio Layer 3 (MP3), 128kbps

MI

Allgemein
Полное имя : C:\Users\Alex\Videos\Pautina-4 .2011.SATRip-SVAT\Pautina-4.01 seriya.2011.SATRip-SVAT.avi
Формат : AVI
Формат/Информация : Audio Video Interleave
Размер файла : 501 MiB
Продолжительность : 42min
Общий поток : 1 633 Kbps
Программа кодирования : VirtualDubMod 1.5.10.3 | www.virtualdub-fr.org || (build 2550/release)
Библиотека кодирования : VirtualDubMod build 2550/release
Video
Идентификатор : 0
Формат : MPEG-4 Visual
Профайл формата : Advanced Simple@L5
Параметры BVOP формата : Ja
Параметры QPel формата : Nein
Параметры GMC формата : Keine warppoints
Параметры матрицы формата : Default (MPEG)
Идентификатор кодека : XVID
Идентификатор кодека/Подсказка : XviD
Продолжительность : 42min
Битрейт : 1 495 Kbps
Ширина : 704 Pixel
Высота : 384 Pixel
Соотношение кадра : 16:9
Частота кадров : 25,000 FPS
ColorSpace : YUV
ChromaSubsampling : 4:2:0
BitDepth/String : 8 bits
Тип развёртки : progressiv
Бит/(Пиксели*Кадры) : 0.221
Размер потока : 459 MiB (92%)
Библиотека кодирования : XviD 61
Audio
Идентификатор : 1
Формат : MPEG Audio
Версия формата : Version 1
Профайл формата : Layer 3
Идентификатор кодека : 55
Идентификатор кодека/Подсказка : MP3
Продолжительность : 42min
Вид битрейта : konstant
Битрейт : 128 Kbps
Канал(ы) : 2 Kanäle
Частота : 48,0 KHz
Размер потока : 39,3 MiB (8%)
Выравнивание : Ausgerichtet an Interleaves
Продолжительность промежутка : 40 ms (1,00 Video-Frame)
Время предзагрузки промежутка : 504 ms
Библиотека кодирования : LAME3.98r
Настройки программы : -m s -V 4 -q 2 -lowpass 17 -b 128

Скриншоты

Внимание ! Раздача ведётся путём добавления новых серий

Внимание! Раздача ведётся путём добавления новых серий; при каждом добавлении создётся новый торрент. Чтобы начать докачку новой серии, пользователям необходимо сделать следующее:
(1) остановить скачивание,
(2) удалить старый торрент у себя из клиента (старые серии удалять не надо),
(3) скачать новый торрент и запустить его у себя в клиенте вместо старого, при этом указать клиенту путь в старую папку куда и должно происходить скачивание новых серий.
Ваш клиент при этом должен произвести хеширование (проверку) старой папки (если не производит сам - помогите ему сделать это), и будет докачивать только те серии которых у вас ещё нет. Старые серии при этом не удаляются, а продолжают раздаваться!
Eсли вы уже удалили старые серии, то предотвратить повторную закачку старых серий можно, отжав галочку в соответсвующих местах при запуске нового торрента. По возможности, желательно не удалять старые серии как можно дольше чтобы релизёр не столько продолжал раздавать старые серии, а смог сконцентрироваться на новых.

Сравнение

Сравнительные скриншоты с этой раздачей http://rutracker.org/forum/viewtopic.php?t=3365145
http://screenshotcomparison.com/comparison/20056/picture:0
Сэмпл с моей раздачи http://multi-up.com/413157
Сэмпл с альтернативной раздачи http://multi-up.com/413172
Вы не можете начинать темы
Вы не можете отвечать на сообщения
Вы не можете редактировать свои сообщения
Вы не можете удалять свои сообщения
Вы не можете голосовать в опросах
Вы не можете прикреплять файлы к сообщениям
Вы можете скачивать файлы
!ВНИМАНИЕ!

Сайт не предоставляет электронные версии произведений, а занимается лишь коллекционированием и каталогизацией ссылок, присылаемых и публикуемых на форуме нашими читателями. Если вы являетесь правообладателем какого-либо представленного материала и не желаете, чтобы ссылка на него находилась в нашем каталоге, свяжитесь с нами, и мы незамедлительно удалим ее. Файлы для обмена на трекере предоставлены пользователями сайта, и администрация не несет ответственности за их содержание. Просьба не заливать файлы, защищенные авторскими правами, а также файлы нелегального содержания!

Искали программы, игры, дополнения, музыка mp3, аниме, аудио книги, журналы? Добро пожаловать на свободный торрент трекер Torrents, у нас можно скачать бесплатно, без смс и регистрации и прочих ограничений лучшие, отборные сборки программ, игр. Скачать торрентом не составит труда даже не опытному пользователю. Раздачи ежедневно обновляются, только лучшие и качественные раздачи, подробные описания и скриншоты. Огромная коллекция программ для работы со звуком, графикой, дизайном, а так же множество плагинов и инструментов к ним с подробной инструкцией и рекомендациями. Прошивки для навигаторов, карты. Разнообразные игры, для Windows, Linux. В коллекцие есть и старые игры любых жанров, Rpg, Action, Shooter, strategy Множество дополнений, модификаций, сценариев для популярных игр в жанре экш, рпг, гонки, стратегии, логические игры. Множество аддонов и сценариев для Microsoft Flight Simulator Большая коллекция книг, учебников. Если нет возможности купить печатное издание - смело скачивайте цифровую версию книги или, быть может, журнала. Не любите читать - можно загрузить бесплатно аудикнигу. Для веб дизайнеров и программистов так же найдется множество специализированного софта, таких как: редакторы с подсветкой, среды программирования, компоненты, системы управления базами данных, разнообразные скрипты и шаблоны. Не так давно у нас появился материал для автолюбителей и владельцев мото - оригинальные и неоригинальные каталоги запчастей, книги и журналы по ремонту и обслуживанию, видеоуроки, статьи по чип тюнингу, прошивкам. Процедура получения контента элементарная, достаточно просто скачать торрент файл и добавить его в загрузку в вашем торрент клиенте. Если у вас нет специального торрент клиента, вы можете его скачать у нас.