Константин: Город Демонов - Фильм / Constantine City of Demons - The Movie (Даг Мерфи) [2018, США, мультфильм, ужасы, фэнтези, BDRip 1080p] Rus Sub 

Цитировать
Константин: Город Демонов - Фильм / Constantine City of Demons - The Movie
Страна: США
Жанр: мультфильм, ужасы, фэнтези
Продолжительность: 01:30:09
Год выпуска: 2018
Перевод: Субтитры [UGN SUBZ Translators]
Русские субтитры: есть
Режиссёр: Даг Мерфи
Роли озвучивали: Мэтт Райан, Эмили О'Брайан, Дэмиан О'Хейр
Описание: Новая история о похождениях того самого Джона Константина, знаменитого персонажа вселенной DC, о котором написано множество комиксов и снято большое количество материала. Увлекшись с детства изучением оккультизма, сейчас он стал детективом, специализирующимся на потусторонних мирах. Впрочем, и сам Джон тоже обладает сверхъестественными способностями. Хоть и изредка, но он всё же пользуется магией, а его кровь, доставшаяся ему от демона, обладает целебными свойствами. И если вы знаете, что в вашем деле что-то нечисто, значит пришла самая пора обратиться к Константину.
Однажды к Джону приходит его лучший друг Чез, с которым они не виделись вот уже несколько лет. Но вместо радостной встречи старых приятелей, Чез поведал Константину трагическую историю. Его любимая и единственная дочка Триш впала в кому, и врачи в её случае лишь разводят руками, не зная, как и чем можно помочь девочке. Но Чез убеждён, что дело вовсе не в болезни, его дочь стала жертвой чёрной магии. Константин решает взяться за расследование и помочь своему лучшему другу в его беде.
Семпл: http://multi-up.com/1211860
Качество: BDRip 1080p
Формат: MKV
Видео: AVC, 1920x1080, 23.976 fps, 3458 kbps
Аудио: DTS, 48,0 KHz, 6 ch, 1509 kbps
Субтитры: русские, английские

Подробные технические данные

ОбщееУникальный идентификатор                 : 250707313458503935914430920670319008441 (0xBC9C78E3D8B134778F09A4B16D24DAB9)Полное имя                               : ConstantineCoDTheMovie\Constantine.City.of.Demons.The.Movie.2018.1080p.BluRay.DTS.X264-CMRG[UGN].mkvФормат                                   : MatroskaВерсия формата                           : Version 4 / Version 2Размер файла                             : 3,14 ГбайтПродолжительность                        : 1 ч. 30 м.Общий поток                              : 4985 Кбит/секНазвание фильма                          : CMRGДата кодирования                         : UTC 2018-10-14 17:18:22Программа кодирования                    : mkvmerge v18.0.0 ('Apricity') 64-bitБиблиотека кодирования                   : libebml v1.3.5 + libmatroska v1.4.8Writing frontend                         : StaxRip v1.7.0.0
ВидеоИдентификатор : 1Формат : AVCФормат/Информация : Advanced Video CodecПрофиль формата : High@L4.1Настройки формата : CABAC / 5 Ref FramesПараметр CABAC формата : ДаПараметр RefFrames формата : 5 кадровИдентификатор кодека : V_MPEG4/ISO/AVCПродолжительность : 1 ч. 30 м.Битрейт : 3458 Кбит/секШирина : 1920 пикселейВысота : 1080 пикселейСоотношение сторон : 16:9Режим частоты кадров : ПостоянныйЧастота кадров : 23,976 (24000/1001) кадра/секЦветовое пространство : YUVСубдискретизация насыщенности : 4:2:0Битовая глубина : 8 битТип развёртки : ПрогрессивнаяБит/(Пиксели*Кадры) : 0.070Размер потока : 2,18 Гбайт (69%)Библиотека кодирования : x264 core 152 r2851 ba24899Настройки программы : cabac=1 / ref=5 / deblock=0:0:0 / analyse=0x3:0x113 / me=umh / subme=7 / psy=0 / mixed_ref=1 / me_range=16 / chroma_me=1 / trellis=1 / 8x8dct=1 / cqm=0 / deadzone=21,11 / fast_pskip=1 / chroma_qp_offset=0 / threads=90 / lookahead_threads=8 / sliced_threads=0 / nr=0 / decimate=0 / interlaced=0 / bluray_compat=0 / constrained_intra=0 / bframes=5 / b_pyramid=2 / b_adapt=2 / b_bias=0 / direct=1 / weightb=1 / open_gop=0 / weightp=2 / keyint=250 / keyint_min=23 / scenecut=40 / intra_refresh=0 / rc_lookahead=40 / rc=crf / mbtree=1 / crf=18.0 / qcomp=0.60 / qpmin=0 / qpmax=69 / qpstep=4 / ip_ratio=1.40 / aq=1:0.00Default : ДаForced : НетЦветовой диапазон : LimitedОсновные цвета : BT.709Характеристики трансфера : BT.709Коэффициенты матрицы : BT.709
АудиоИдентификатор : 2Формат : DTSФормат/Информация : Digital Theater SystemsИдентификатор кодека : A_DTSПродолжительность : 1 ч. 30 м.Вид битрейта : ПостоянныйБитрейт : 1509 Кбит/секКаналы : 6 каналовРасположение каналов : Front: L C R, Side: L R, LFEЧастота : 48,0 КГцЧастота кадров : 93,750 кадра/сек (512 SPF)Битовая глубина : 16 битМетод сжатия : С потерямиРазмер потока : 973 Мбайт (30%)Язык : EnglishDefault : НетForced : Нет
Текст #1Идентификатор : 3Формат : PGSРежим смешивания : zlibИдентификатор кодека : S_HDMV/PGSИдентификатор кодека/Информация : Picture based subtitle format used on BDs/HD-DVDsПродолжительность : 1 ч. 27 м.Битрейт : 37,9 Кбит/секElementCount : 2710Размер потока : 23,7 Мбайт (1%)Язык : EnglishDefault : НетForced : Нет
Текст #2Идентификатор : 4Формат : UTF-8Идентификатор кодека : S_TEXT/UTF8Идентификатор кодека/Информация : UTF-8 Plain TextПродолжительность : 1 ч. 27 м.Битрейт : 94 бит/секElementCount : 1100Размер потока : 60,3 Кбайт (0%)Язык : RussianDefault : ДаForced : Нет
Меню00:00:00.000 : en:Chapter 100:14:02.717 : en:Chapter 200:24:02.566 : en:Chapter 300:34:51.423 : en:Chapter 400:48:08.844 : en:Chapter 500:55:09.890 : en:Chapter 601:03:57.375 : en:Chapter 701:10:39.110 : en:Chapter 801:22:02.876 : en:Chapter 901:27:28.702 : en:Chapter 10

Скриншоты

Вы не можете начинать темы
Вы не можете отвечать на сообщения
Вы не можете редактировать свои сообщения
Вы не можете удалять свои сообщения
Вы не можете голосовать в опросах
Вы не можете прикреплять файлы к сообщениям
Вы можете скачивать файлы
!ВНИМАНИЕ!

Сайт не предоставляет электронные версии произведений, а занимается лишь коллекционированием и каталогизацией ссылок, присылаемых и публикуемых на форуме нашими читателями. Если вы являетесь правообладателем какого-либо представленного материала и не желаете, чтобы ссылка на него находилась в нашем каталоге, свяжитесь с нами, и мы незамедлительно удалим ее. Файлы для обмена на трекере предоставлены пользователями сайта, и администрация не несет ответственности за их содержание. Просьба не заливать файлы, защищенные авторскими правами, а также файлы нелегального содержания!

Искали программы, игры, дополнения, музыка mp3, аниме, аудио книги, журналы? Добро пожаловать на свободный торрент трекер Torrents, у нас можно скачать бесплатно, без смс и регистрации и прочих ограничений лучшие, отборные сборки программ, игр. Скачать торрентом не составит труда даже не опытному пользователю. Раздачи ежедневно обновляются, только лучшие и качественные раздачи, подробные описания и скриншоты. Огромная коллекция программ для работы со звуком, графикой, дизайном, а так же множество плагинов и инструментов к ним с подробной инструкцией и рекомендациями. Прошивки для навигаторов, карты. Разнообразные игры, для Windows, Linux. В коллекцие есть и старые игры любых жанров, Rpg, Action, Shooter, strategy Множество дополнений, модификаций, сценариев для популярных игр в жанре экш, рпг, гонки, стратегии, логические игры. Множество аддонов и сценариев для Microsoft Flight Simulator Большая коллекция книг, учебников. Если нет возможности купить печатное издание - смело скачивайте цифровую версию книги или, быть может, журнала. Не любите читать - можно загрузить бесплатно аудикнигу. Для веб дизайнеров и программистов так же найдется множество специализированного софта, таких как: редакторы с подсветкой, среды программирования, компоненты, системы управления базами данных, разнообразные скрипты и шаблоны. Не так давно у нас появился материал для автолюбителей и владельцев мото - оригинальные и неоригинальные каталоги запчастей, книги и журналы по ремонту и обслуживанию, видеоуроки, статьи по чип тюнингу, прошивкам. Процедура получения контента элементарная, достаточно просто скачать торрент файл и добавить его в загрузку в вашем торрент клиенте. Если у вас нет специального торрент клиента, вы можете его скачать у нас.