Константин: Город Демонов. Фильм / Constantine City of Demons. The Movie (Даг Мерфи / Doug Murphy) [2018, мультфильм, ужасы, фэнтези, BDRemux 1080p] MVO + Original Eng + rus, eng sub 

Цитировать
Константин: Город Демонов. Фильм / Constantine City of Demons. The Movie -Страна: США.
Жанр: Мультфильм, ужасы, фэнтези.
Продолжительность: 01:30:09
Год выпуска: 2018.
Перевод: Любительский (многоголосый закадровый) Flarrow Films.
Русские субтитры: Есть.
Режиссёр: Даг Мерфи / Doug Murphy.
Роли озвучивали: Лора Бэйли, Робин Аткин Даунс, Мэтт Райан, Кевин Майкл Ричардсон, Джим Мескимен, Эмили О’Брайэн, Рэйчел Кимси, Дэмиан О’Хейр, Рик Д. Вассерман.--Описание: Однажды к Джону приходит его лучший друг Чез, с которым они не виделись вот уже несколько лет. Но вместо радостной встречи старых приятелей, Чез поведал Константину трагическую историю. Его любимая и единственная дочка Триш впала в кому, и врачи в её случае лишь разводят руками, не зная, как и чем можно помочь девочке. Но Чез убеждён, что дело вовсе не в болезни, его дочь стала жертвой чёрной магии. Константин решает взяться за расследование и помочь своему лучшему другу в его беде.--

Роли озвучивали :

Flarrow Films

Закадровые голоса: Семен Евсиков, Владислав Пожарский, Катя Смирнова, Денис Кузмичев, Алексей Ядренников, Лизавета Корнилова, Лола Бугурт.
Релиз: -Благодарности:
Спасибо Flarrow Films за любезно предоставленные чистые голоса;
Спасибо UGN SUBZ Translators за русские субтитры.-Качество: BDRemux 1080p
Формат: MKV
Видео кодек: AVC
Аудио кодек: DTS MA
Видео: 1920x1080 , 14.9 Mb/s / 23.976 fps / 16:9 / High Profile 4.1 / 8 bits
Аудио 1: DTS-HD Master Audio / 5.1 / 48 kHz / 2 166 kbps / 16-bit (DTS Core: 5.1 / 48 kHz / 1509 kbps / 16-bit) Flarrow Films
Аудио 2: DTS-HD Master Audio / 5.1 / 48 kHz / 2 190 kbps / 24-bit (DTS Core: 5.1 / 48 kHz / 1509 kbps / 24-bit) English
Субтитры: Русские (Перевод группы UGN SUBZ Translators), English, English SDH.
Навигация по главам: 10 глав (не именных)

MInfo

GeneralUnique ID                   : 85866182394298033372888280846454698014 (0x409939A5F16972A018CF895223A7301E)Complete name               : D:\Torrents\Constantine City of Demons. The Movie (2018) BDRemux 1080p Bobropandavar.mkvFormat                      : MatroskaFormat version              : Version 4 / Version 2File size                   : 12.1 GiBDuration                    : 1 h 30 minOverall bit rate mode       : VariableOverall bit rate            : 19.3 Mb/sEncoded date                : UTC 2018-10-15 22:33:05Writing application         : mkvmerge v27.0.0 ('Metropolis') 64-bitWriting library             : libebml v1.3.6 + libmatroska v1.4.9Cover                       : YesAttachments                 : cover.jpg
VideoID : 1Format : AVCFormat/Info : Advanced Video CodecFormat profile : High@L4.1Format settings : CABAC / 4 Ref FramesFormat settings, CABAC : YesFormat settings, ReFrames : 4 framesCodec ID : V_MPEG4/ISO/AVCDuration : 1 h 30 minBit rate mode : VariableBit rate : 14.9 Mb/sMaximum bit rate : 32.0 Mb/sWidth : 1 920 pixelsHeight : 1 080 pixelsDisplay aspect ratio : 16:9Frame rate mode : ConstantFrame rate : 23.976 (24000/1001) FPSColor space : YUVChroma subsampling : 4:2:0Bit depth : 8 bitsScan type : ProgressiveBits/(Pixel*Frame) : 0.300Stream size : 9.40 GiB (77%)Language : EnglishDefault : YesForced : No
Audio #1ID : 2Format : DTSFormat/Info : Digital Theater SystemsFormat profile : MA / CoreCodec ID : A_DTSDuration : 1 h 30 minBit rate mode : Variable / ConstantBit rate : 2 166 kb/s / 1 509 kb/sChannel(s) : 6 channelsChannel positions : Front: L C R, Side: L R, LFESampling rate : 48.0 kHzFrame rate : 93.750 FPS (512 SPF)Bit depth : 16 bitsCompression mode : Lossless / LossyStream size : 1.36 GiB (11%)Title : Flarrow FilmsLanguage : RussianDefault : YesForced : No
Audio #2ID : 3Format : DTSFormat/Info : Digital Theater SystemsFormat profile : MA / CoreCodec ID : A_DTSDuration : 1 h 30 minBit rate mode : Variable / ConstantBit rate : 2 190 kb/s / 1 509 kb/sChannel(s) : 6 channelsChannel positions : Front: L C R, Side: L R, LFESampling rate : 48.0 kHzFrame rate : 93.750 FPS (512 SPF)Bit depth : 24 bitsCompression mode : Lossless / LossyStream size : 1.38 GiB (11%)Title : EnglishLanguage : EnglishDefault : NoForced : No
Text #1ID : 4Format : UTF-8Codec ID : S_TEXT/UTF8Codec ID/Info : UTF-8 Plain TextDuration : 1 h 27 minBit rate : 94 b/sCount of elements : 1101Stream size : 60.3 KiB (0%)Title : Русские [UGN SUBZ Translators]Language : RussianDefault : NoForced : No
Text #2ID : 5Format : UTF-8Codec ID : S_TEXT/UTF8Codec ID/Info : UTF-8 Plain TextDuration : 1 h 27 minBit rate : 56 b/sCount of elements : 1355Stream size : 36.4 KiB (0%)Title : EnglishLanguage : EnglishDefault : NoForced : No
Text #3ID : 6Format : UTF-8Codec ID : S_TEXT/UTF8Codec ID/Info : UTF-8 Plain TextDuration : 1 h 26 minBit rate : 51 b/sCount of elements : 1157Stream size : 32.7 KiB (0%)Title : English SDHLanguage : EnglishDefault : NoForced : No
Menu00:00:00.000 : :Глава 0100:14:02.716 : :Глава 0200:24:02.566 : :Глава 0300:34:51.422 : :Глава 0400:48:08.844 : :Глава 0500:55:09.889 : :Глава 0601:03:57.375 : :Глава 0701:10:39.109 : :Глава 0801:22:02.876 : :Глава 0901:27:28.701 : :Глава 10

Скриншоты


-МОИ РАЗДАЧИ-НЕ ЗАБЫВАЕМ БЛАГОДАРИТЬ НАЖАТИЕМ КНОПОЧКИ "СПАСИБО"
Вы не можете начинать темы
Вы не можете отвечать на сообщения
Вы не можете редактировать свои сообщения
Вы не можете удалять свои сообщения
Вы не можете голосовать в опросах
Вы не можете прикреплять файлы к сообщениям
Вы можете скачивать файлы
!ВНИМАНИЕ!

Сайт не предоставляет электронные версии произведений, а занимается лишь коллекционированием и каталогизацией ссылок, присылаемых и публикуемых на форуме нашими читателями. Если вы являетесь правообладателем какого-либо представленного материала и не желаете, чтобы ссылка на него находилась в нашем каталоге, свяжитесь с нами, и мы незамедлительно удалим ее. Файлы для обмена на трекере предоставлены пользователями сайта, и администрация не несет ответственности за их содержание. Просьба не заливать файлы, защищенные авторскими правами, а также файлы нелегального содержания!

Искали программы, игры, дополнения, музыка mp3, аниме, аудио книги, журналы? Добро пожаловать на свободный торрент трекер Torrents, у нас можно скачать бесплатно, без смс и регистрации и прочих ограничений лучшие, отборные сборки программ, игр. Скачать торрентом не составит труда даже не опытному пользователю. Раздачи ежедневно обновляются, только лучшие и качественные раздачи, подробные описания и скриншоты. Огромная коллекция программ для работы со звуком, графикой, дизайном, а так же множество плагинов и инструментов к ним с подробной инструкцией и рекомендациями. Прошивки для навигаторов, карты. Разнообразные игры, для Windows, Linux. В коллекцие есть и старые игры любых жанров, Rpg, Action, Shooter, strategy Множество дополнений, модификаций, сценариев для популярных игр в жанре экш, рпг, гонки, стратегии, логические игры. Множество аддонов и сценариев для Microsoft Flight Simulator Большая коллекция книг, учебников. Если нет возможности купить печатное издание - смело скачивайте цифровую версию книги или, быть может, журнала. Не любите читать - можно загрузить бесплатно аудикнигу. Для веб дизайнеров и программистов так же найдется множество специализированного софта, таких как: редакторы с подсветкой, среды программирования, компоненты, системы управления базами данных, разнообразные скрипты и шаблоны. Не так давно у нас появился материал для автолюбителей и владельцев мото - оригинальные и неоригинальные каталоги запчастей, книги и журналы по ремонту и обслуживанию, видеоуроки, статьи по чип тюнингу, прошивкам. Процедура получения контента элементарная, достаточно просто скачать торрент файл и добавить его в загрузку в вашем торрент клиенте. Если у вас нет специального торрент клиента, вы можете его скачать у нас.