Настоящий Гарфилд / Garfield Gets Real (Марк А.З. Диппе, Кюнг Хо Ли / Mark A.Z. Dippe, Kyung Ho Lee) [2007, мультфильм, комедия, семейный, WEB-DL 1080p] Dub (CDI Media) + MVO (CPIG) + Ukr MVO + Original Eng + Eng sub 

Цитировать
Настоящий Гарфилд / Garfield Gets Real- Страна: США
Жанр: мультфильм, комедия, семейный
Год выпуска: 2007
Продолжительность: 01:17:50-Перевод 1: Профессиональный (дублированный) SDI Media Russia / Канал Boomerang
Роли дублировали: Дмитрий Филимонов, Александ Дасевич, Сергей Смирнов, Олег Куценко, Иван Калинин, Иван Чабан, Татьяна Шитова
Перевод 2: Профессиональный (многоголосый закадровый) CPIG
Роли озвучивали: Олег Форостенко, Никита Прозоровский, Людмила Ильина
Субтитры: есть-Режиссеры: Марк А.З. Диппе, Кюнг Хо Ли / Mark A.Z. Dippe, Kyung Ho Lee
Роли озвучивали: Фрэнк Уэлкер, Райиа Бароуди, Грегг Бергер, Дженнифер Дарлинг, Грег Иглз, Пэт Фрэли, Джейсон Мэрсден, Дэвид Мичи, Хэролд Перрино, Нил Росс...-Описание: Гарфилд — герой газетных комиксов решает сменить свой скучный мир на «настоящий». Но очень быстро он понимает, что жизнь его была скучной, но — безопасной. При помощи новых и старых друзей он спасается от кровожадных Чихуа-хуа и перекаченных дворняг. Гарфилд понимает, что настоящий не тот, кто в настоящем мире, а тот, у кого настоящее сердце.- | Релиз: -Семпл: http://sendfile.su/1443672-Тип релиза: WEB-DL 1080p (Garfield.Gets.Real.2007.1080p.AMZN.WEB-DL.DDP5.1.x264-ABM)
Контейнер: MKV
Видео: 1920x1080 (16:9), 23.976 fps, AVC, 10699 kbps, 0.210 bits/pixel
Аудио #1: Русский, 48.0 KHz, AC3, 2 ch, 192 kbps - Дублированный | SDI Media Russia | Boomerang
Аудио #2: Русский, 48.0 KHz, AC3, 6 ch, 384 kbps - Закадровый | CPIG
Аудио #3: Українська, 48.0 KHz, AC3, 2 ch, 192 kbps - Закадровий
Аудио #4: English, 48.0 KHz, AC3+, 6 ch, 640 kbps
Субтитры: English, English SDH

MediaInfo

GeneralUnique ID                                : 29123574736974436247804987127858192317 (0x15E8FF187C086561DD5DB4EBD4BBDFBD)Complete name                            : Garfield.Gets.Real.2007.WEB-DL.1080p-RUTRACKER.mkvFormat                                   : MatroskaFormat version                           : Version 4File size                                : 6.58 GiBDuration                                 : 1 h 17 minOverall bit rate mode                    : VariableOverall bit rate                         : 12.1 Mb/sMovie name                               : Garfield.Gets.Real.2007.WEB-DL.1080p-RUTRACKEREncoded date                             : UTC 2018-09-18 19:59:31Writing application                      : mkvmerge v26.0.0 ('In The Game') 64-bitWriting library                          : libebml v1.3.6 + libmatroska v1.4.9
VideoID : 1Format : AVCFormat/Info : Advanced Video CodecFormat profile : High@L4Format settings : CABAC / 4 Ref FramesFormat settings, CABAC : YesFormat settings, RefFrames : 4 framesCodec ID : V_MPEG4/ISO/AVCDuration : 1 h 17 minBit rate mode : VariableBit rate : 10.7 Mb/sMaximum bit rate : 15.0 Mb/sWidth : 1 920 pixelsHeight : 1 080 pixelsDisplay aspect ratio : 16:9Frame rate mode : ConstantFrame rate : 23.976 (24000/1001) FPSColor space : YUVChroma subsampling : 4:2:0Bit depth : 8 bitsScan type : ProgressiveBits/(Pixel*Frame) : 0.215Stream size : 5.82 GiB (88%)Writing library : x264 core 148 r2623 d5b2374Encoding settings : cabac=1 / ref=4 / deblock=1:-1:-1 / analyse=0x3:0x133 / me=umh / subme=9 / psy=1 / psy_rd=1.00:0.15 / mixed_ref=1 / me_range=24 / chroma_me=1 / trellis=2 / 8x8dct=1 / cqm=0 / deadzone=21,11 / fast_pskip=1 / chroma_qp_offset=-3 / threads=34 / lookahead_threads=5 / sliced_threads=0 / nr=150 / decimate=1 / interlaced=0 / bluray_compat=0 / constrained_intra=0 / bframes=8 / b_pyramid=2 / b_adapt=2 / b_bias=0 / direct=3 / weightb=1 / open_gop=0 / weightp=2 / keyint=120 / keyint_min=61 / scenecut=0 / intra_refresh=0 / rc_lookahead=120 / rc=crf / mbtree=1 / crf=18.0 / qcomp=0.60 / qpmin=0 / qpmax=69 / qpstep=4 / vbv_maxrate=15000 / vbv_bufsize=31250 / crf_max=0.0 / nal_hrd=vbr / filler=0 / ip_ratio=1.40 / aq=3:1.00Default : YesForced : NoColor range : LimitedColor primaries : BT.709Transfer characteristics : BT.709Matrix coefficients : BT.709
Audio #1ID : 2Format : AC-3Format/Info : Audio Coding 3Commercial name : Dolby DigitalCodec ID : A_AC3Duration : 1 h 17 minBit rate mode : ConstantBit rate : 192 kb/sChannel(s) : 2 channelsChannel layout : L RSampling rate : 48.0 kHzFrame rate : 31.250 FPS (1536 SPF)Bit depth : 16 bitsCompression mode : LossyStream size : 107 MiB (2%)Title : Дублированный | SDI Media Russia | BoomerangLanguage : RussianService kind : Complete MainDefault : YesForced : No
Audio #2ID : 3Format : AC-3Format/Info : Audio Coding 3Commercial name : Dolby DigitalCodec ID : A_AC3Duration : 1 h 17 minBit rate mode : ConstantBit rate : 384 kb/sChannel(s) : 6 channelsChannel layout : L R C LFE Ls RsSampling rate : 48.0 kHzFrame rate : 31.250 FPS (1536 SPF)Bit depth : 16 bitsCompression mode : LossyStream size : 214 MiB (3%)Title : Закадровый | CPIGLanguage : RussianService kind : Complete MainDefault : NoForced : No
Audio #3ID : 4Format : AC-3Format/Info : Audio Coding 3Commercial name : Dolby DigitalCodec ID : A_AC3Duration : 1 h 17 minBit rate mode : ConstantBit rate : 192 kb/sChannel(s) : 2 channelsChannel layout : L RSampling rate : 48.0 kHzFrame rate : 31.250 FPS (1536 SPF)Bit depth : 16 bitsCompression mode : LossyStream size : 107 MiB (2%)Title : ЗакадровийLanguage : UkrainianService kind : Complete MainDefault : NoForced : No
Audio #4ID : 5Format : E-AC-3Format/Info : Enhanced AC-3Commercial name : Dolby Digital PlusCodec ID : A_EAC3Duration : 1 h 17 minBit rate mode : ConstantBit rate : 640 kb/sChannel(s) : 6 channelsChannel layout : L R C LFE Ls RsSampling rate : 48.0 kHzFrame rate : 31.250 FPS (1536 SPF)Compression mode : LossyStream size : 356 MiB (5%)Language : EnglishService kind : Complete MainDefault : NoForced : No
Text #1ID : 6Format : UTF-8Codec ID : S_TEXT/UTF8Codec ID/Info : UTF-8 Plain TextDuration : 1 h 12 minBit rate : 47 b/sCount of elements : 912Stream size : 25.1 KiB (0%)Language : EnglishDefault : NoForced : No
Text #2ID : 7Format : UTF-8Codec ID : S_TEXT/UTF8Codec ID/Info : UTF-8 Plain TextDuration : 1 h 12 minBit rate : 52 b/sCount of elements : 1157Stream size : 28.2 KiB (0%)Title : SDHLanguage : EnglishDefault : NoForced : No
Menu00:00:00.000 : en:Studio Logos00:00:05.000 : en:Garfield tries to avoid the sunlight, Opening Credits00:02:17.000 : en:Jon prepares breakfast and wakes up Garfield00:04:22.000 : en:Jon and his pets head to the office00:06:32.000 : en:Jon and Garfield interact with the others00:10:14.000 : en:Garfield shares his grief with Arlene00:11:36.000 : en:Garfield feels lethargic at work00:14:51.000 : en:Garfield helps Odie and Charles continues his shoot00:16:06.000 : en:Odie hides the bone and Garfield shares his stories00:17:49.000 : en:Betty does the final review and Eli makes an announcement00:20:46.000 : en:Eli helps everybody review the audience's reaction00:23:20.000 : en:The real world tempts Garfield00:28:57.000 : en:Garfield searches for food and Odie is chased by other pets00:30:42.000 : en:Nermal voluteers for the comic and Odie gets rid of the pets00:33:07.000 : en:Arlene gets jealous and Garfield goes to club Shecky00:37:49.000 : en:Shecky, Garfield, and Odie take a rest00:40:56.000 : en:Garfield reads the news and Odie is chased by Ashley's pets again00:43:35.000 : en:Jon asks everyone for ideas while Garfield and Odie leave for the newspaper00:44:47.000 : en:Garfield and Odie enter the newspaper office and plead to return00:48:31.000 : en:Mike's shows off his idea and Garfield gets one more chance00:51:22.000 : en:Garfield and Odie try to find a way back00:54:39.000 : en:Garfield puts a plan in motion00:56:27.000 : en:Wally and the others find the equipment while Hale and Hardy fight back01:00:17.000 : en:Eli asks Wally to execute the rescue mission01:04:46.000 : en:Wally and others enter the new world01:06:16.000 : en:Garfield and Odie encounter obstacles on their way back01:09:23.000 : en:Everybody celebrates Garfield and Odie's return to the comic01:10:54.000 : en:Hale and Hardy fight and Sheila and Waldo miss their food fetcher01:11:56.000 : en:Garfield and the others celebrate01:13:38.000 : en:End Credits

Скриншоты

Вы не можете начинать темы
Вы не можете отвечать на сообщения
Вы не можете редактировать свои сообщения
Вы не можете удалять свои сообщения
Вы не можете голосовать в опросах
Вы не можете прикреплять файлы к сообщениям
Вы можете скачивать файлы
!ВНИМАНИЕ!

Сайт не предоставляет электронные версии произведений, а занимается лишь коллекционированием и каталогизацией ссылок, присылаемых и публикуемых на форуме нашими читателями. Если вы являетесь правообладателем какого-либо представленного материала и не желаете, чтобы ссылка на него находилась в нашем каталоге, свяжитесь с нами, и мы незамедлительно удалим ее. Файлы для обмена на трекере предоставлены пользователями сайта, и администрация не несет ответственности за их содержание. Просьба не заливать файлы, защищенные авторскими правами, а также файлы нелегального содержания!

Искали программы, игры, дополнения, музыка mp3, аниме, аудио книги, журналы? Добро пожаловать на свободный торрент трекер Torrents, у нас можно скачать бесплатно, без смс и регистрации и прочих ограничений лучшие, отборные сборки программ, игр. Скачать торрентом не составит труда даже не опытному пользователю. Раздачи ежедневно обновляются, только лучшие и качественные раздачи, подробные описания и скриншоты. Огромная коллекция программ для работы со звуком, графикой, дизайном, а так же множество плагинов и инструментов к ним с подробной инструкцией и рекомендациями. Прошивки для навигаторов, карты. Разнообразные игры, для Windows, Linux. В коллекцие есть и старые игры любых жанров, Rpg, Action, Shooter, strategy Множество дополнений, модификаций, сценариев для популярных игр в жанре экш, рпг, гонки, стратегии, логические игры. Множество аддонов и сценариев для Microsoft Flight Simulator Большая коллекция книг, учебников. Если нет возможности купить печатное издание - смело скачивайте цифровую версию книги или, быть может, журнала. Не любите читать - можно загрузить бесплатно аудикнигу. Для веб дизайнеров и программистов так же найдется множество специализированного софта, таких как: редакторы с подсветкой, среды программирования, компоненты, системы управления базами данных, разнообразные скрипты и шаблоны. Не так давно у нас появился материал для автолюбителей и владельцев мото - оригинальные и неоригинальные каталоги запчастей, книги и журналы по ремонту и обслуживанию, видеоуроки, статьи по чип тюнингу, прошивкам. Процедура получения контента элементарная, достаточно просто скачать торрент файл и добавить его в загрузку в вашем торрент клиенте. Если у вас нет специального торрент клиента, вы можете его скачать у нас.