Мой маленький пони. Девочки из Эквестрии - Забытая дружба / My Little Pony: Equestria Girls - Forgotten Friendship (Иши Руделл / Ishi Rudell) [2018, приключения, семейный, фэнтези, WEBRip 1080p] Dub (SDI Media Russia) + VO (TheDoctor Team, ALEKS KV) 

Цитировать
Мой маленький пони. Девочки из Эквестрии - Забытая дружба / My Little Pony: Equestria Girls - Forgotten Friendship Страна: США, Канада
Жанр: Приключения, семейный, фэнтези, мультфильм
Продолжительность: 00:46:00
Год выпуска: 2018
Перевод 1: Профессиональный (дублированный) (SDI Media Russia) (по заказу Hasbro Studios)
Перевод 2: Одноголосый закадровый (TheDoctor Team)
Перевод 3: Одноголосый закадровый (ALEKS KV)
Русские субтитры: есть
Режиссер: Иши Руделл / Ishi Rudell
Роли озвучивали: Тара Стронг, Эшли Болл, Андреа Либман, Табита Сен-Жермен, Кэти Уэслак, Ребекка Шойкет и другие
Описание: В процессе подготовки выпускного фотоальбома школы Кантерлота Сансет Шиммер внезапно обнаруживает, что ее друзья ничего не помнят о ней. Она потрясена, услышав, что после первого года учебы все воспоминания учеников об изменившейся в хорошую сторону Сансет просто исчезли. Отчаявшись, Сансет решает вернуть своим друзьям память о ней, но для этого она должна сначала найти преступника, который мог такое натворить.
Предыдущие и альтернативные раздачи
Рейтинг:
Качество: WEBRip 1080p (x6hfg1w)
Формат: MKV
Видео: AVC, 1920x1080 (16:9), 23.976 fps, ~4652 kbps
Аудио 1 Rus: AC3, 48 kHz, 2 ch, 192 kbps (SDI Media Russia)
Аудио 2 Rus: AC3, 48 kHz, 2 ch, 192 kbps (TheDoctor Team)
Аудио 3 Rus: AC3, 48 kHz, 2 ch, 192 kbps (ALEKS KV)
Аудио 4 Eng: AC3, 48 kHz, 2 ch, 192 kbps (Original)
Субтитры 1 Rus: (Anon2Anon)
Субтитры 2 Rus: (TheDoctor Team)
Субтитры 3 Eng: (Anon2Anon)

Скриншоты

Дополнительная информация

Из Википедии: полнометражный мультфильм "Equestria Girls: Forgotten Friendship" (с англ. "Забытая дружба"), который вышел 17 февраля 2018 на телеканале Discovery Family, был позднее переиздан как мультсериал под названием "Сага Сансет Шиммер: Та, о которой все забудут" (англ. "Sunset Shimmer's Saga: Most Likely to Be Forgotten"). На трекере существуют раздачи и других специальных выпусков Equestria Girls Specials.
В озвучках и субтитрах от TheDoctor Team и ALEKS KV отсутствуют переводы фраз в промежутках 09:58-10:15, 16:11-19:31, 20:22-20:29, 21:12-21:28, 28:28-29:00, так как эти сцены были вырезаны в тв-рипах, однако в этой раздаче официальный дубляж полный.

Подробные технические данные

ОбщееУникальный идентификатор                 : 16029441719316500440679483087943980838 (0xC0F287E7A6B47AA217BA78FD0295726)Полное имя                               : D:\Video\Mults\mlp.egs.forgotten.friendship.2018.webrip.1080p.mkvФормат                                   : MatroskaВерсия формата                           : Version 4 / Version 2Размер файла                             : 1,74 ГбайтПродолжительность                        : 46 м. 0 с.Общий поток                              : 5423 Кбит/секДата кодирования                         : UTC 2018-05-07 13:49:36Программа кодирования                    : mkvmerge v23.0.0 ('The Bride Said No') 64-bitБиблиотека кодирования                   : libebml v1.3.6 + libmatroska v1.4.9
ВидеоИдентификатор : 1Формат : AVCФормат/Информация : Advanced Video CodecПрофиль формата : High@L4Параметр CABAC формата : ДаПараметр ReFrames формата : 3 кадраПараметр GOP формата : M=4, N=72Идентификатор кодека : V_MPEG4/ISO/AVCПродолжительность : 46 м. 0 с.Битрейт : 4652 Кбит/секШирина : 1920 пикселейВысота : 1080 пикселейСоотношение сторон : 16:9Режим частоты кадров : ПостоянныйЧастота кадров : 23,976 (24000/1001) кадра/секЦветовое пространство : YUVСубдискретизация насыщенности : 4:2:0Битовая глубина : 8 битТип развёртки : ПрогрессивнаяБит/(Пиксели*Кадры) : 0.094Размер потока : 1,50 Гбайт (86%)Язык : EnglishDefault : ДаForced : Нет
Аудио #1Идентификатор : 2Формат : AC-3Формат/Информация : Audio Coding 3Расширение режима : CM (complete main)Параметр Endianness формата : BigИдентификатор кодека : A_AC3Продолжительность : 46 м. 0 с.Вид битрейта : ПостоянныйБитрейт : 192 Кбит/секКаналы : 2 каналаРасположение каналов : Front: L RЧастота : 48,0 КГцЧастота кадров : 31,250 кадров/сек (1536 spf)Метод сжатия : С потерямиРазмер потока : 63,2 Мбайт (4%)Заголовок : SDI Media RussiaЯзык : RussianDefault : ДаForced : Нет
Аудио #2Идентификатор : 3Формат : AC-3Формат/Информация : Audio Coding 3Расширение режима : CM (complete main)Параметр Endianness формата : BigИдентификатор кодека : A_AC3Продолжительность : 46 м. 0 с.Вид битрейта : ПостоянныйБитрейт : 192 Кбит/секКаналы : 2 каналаРасположение каналов : Front: L RЧастота : 48,0 КГцЧастота кадров : 31,250 кадров/сек (1536 spf)Метод сжатия : С потерямиРазмер потока : 63,2 Мбайт (4%)Заголовок : TheDoctor TeamЯзык : RussianDefault : НетForced : Нет
Аудио #3Идентификатор : 4Формат : AC-3Формат/Информация : Audio Coding 3Расширение режима : CM (complete main)Параметр Endianness формата : BigИдентификатор кодека : A_AC3Продолжительность : 46 м. 0 с.Вид битрейта : ПостоянныйБитрейт : 192 Кбит/секКаналы : 2 каналаРасположение каналов : Front: L RЧастота : 48,0 КГцЧастота кадров : 31,250 кадров/сек (1536 spf)Метод сжатия : С потерямиРазмер потока : 63,2 Мбайт (4%)Заголовок : ALEKS KVЯзык : RussianDefault : НетForced : Нет
Аудио #4Идентификатор : 5Формат : AC-3Формат/Информация : Audio Coding 3Расширение режима : CM (complete main)Параметр Endianness формата : BigИдентификатор кодека : A_AC3Продолжительность : 46 м. 0 с.Вид битрейта : ПостоянныйБитрейт : 192 Кбит/секКаналы : 2 каналаРасположение каналов : Front: L RЧастота : 48,0 КГцЧастота кадров : 31,250 кадров/сек (1536 spf)Метод сжатия : С потерямиРазмер потока : 63,2 Мбайт (4%)Заголовок : OriginalЯзык : EnglishDefault : НетForced : Нет
Текст #1Идентификатор : 6Формат : ASSИдентификатор кодека : S_TEXT/ASSИдентификатор кодека/Информация : Advanced Sub Station AlphaПродолжительность : 45 м. 41 с.Битрейт : 177 бит/секCount of elements : 726Метод сжатия : Без потерьРазмер потока : 59,4 Кбайт (0%)Заголовок : Anon2AnonЯзык : RussianDefault : НетForced : Нет
Текст #2Идентификатор : 7Формат : ASSИдентификатор кодека : S_TEXT/ASSИдентификатор кодека/Информация : Advanced Sub Station AlphaПродолжительность : 45 м. 32 с.Битрейт : 178 бит/секCount of elements : 749Метод сжатия : Без потерьРазмер потока : 59,6 Кбайт (0%)Заголовок : TheDoctor TeamЯзык : RussianDefault : НетForced : Нет
Текст #3Идентификатор : 8Формат : ASSИдентификатор кодека : S_TEXT/ASSИдентификатор кодека/Информация : Advanced Sub Station AlphaПродолжительность : 45 м. 41 с.Битрейт : 122 бит/секCount of elements : 726Метод сжатия : Без потерьРазмер потока : 40,8 Кбайт (0%)Заголовок : Anon2AnonЯзык : EnglishDefault : НетForced : Нет
Вы не можете начинать темы
Вы не можете отвечать на сообщения
Вы не можете редактировать свои сообщения
Вы не можете удалять свои сообщения
Вы не можете голосовать в опросах
Вы не можете прикреплять файлы к сообщениям
Вы можете скачивать файлы
!ВНИМАНИЕ!

Сайт не предоставляет электронные версии произведений, а занимается лишь коллекционированием и каталогизацией ссылок, присылаемых и публикуемых на форуме нашими читателями. Если вы являетесь правообладателем какого-либо представленного материала и не желаете, чтобы ссылка на него находилась в нашем каталоге, свяжитесь с нами, и мы незамедлительно удалим ее. Файлы для обмена на трекере предоставлены пользователями сайта, и администрация не несет ответственности за их содержание. Просьба не заливать файлы, защищенные авторскими правами, а также файлы нелегального содержания!

Искали программы, игры, дополнения, музыка mp3, аниме, аудио книги, журналы? Добро пожаловать на свободный торрент трекер Torrents, у нас можно скачать бесплатно, без смс и регистрации и прочих ограничений лучшие, отборные сборки программ, игр. Скачать торрентом не составит труда даже не опытному пользователю. Раздачи ежедневно обновляются, только лучшие и качественные раздачи, подробные описания и скриншоты. Огромная коллекция программ для работы со звуком, графикой, дизайном, а так же множество плагинов и инструментов к ним с подробной инструкцией и рекомендациями. Прошивки для навигаторов, карты. Разнообразные игры, для Windows, Linux. В коллекцие есть и старые игры любых жанров, Rpg, Action, Shooter, strategy Множество дополнений, модификаций, сценариев для популярных игр в жанре экш, рпг, гонки, стратегии, логические игры. Множество аддонов и сценариев для Microsoft Flight Simulator Большая коллекция книг, учебников. Если нет возможности купить печатное издание - смело скачивайте цифровую версию книги или, быть может, журнала. Не любите читать - можно загрузить бесплатно аудикнигу. Для веб дизайнеров и программистов так же найдется множество специализированного софта, таких как: редакторы с подсветкой, среды программирования, компоненты, системы управления базами данных, разнообразные скрипты и шаблоны. Не так давно у нас появился материал для автолюбителей и владельцев мото - оригинальные и неоригинальные каталоги запчастей, книги и журналы по ремонту и обслуживанию, видеоуроки, статьи по чип тюнингу, прошивкам. Процедура получения контента элементарная, достаточно просто скачать торрент файл и добавить его в загрузку в вашем торрент клиенте. Если у вас нет специального торрент клиента, вы можете его скачать у нас.