Гладиаторы Рима / Gladiatori di Roma (Иджиниo Cтpaффи/ Iginiо Strаffi) [2012, Италия, мультфильм, комедия, приключения, BDRip 720p] Dub + Rus Sub, Ita + Original Ita 

Цитировать
Гладиаторы Рима / Gladiatori di Roma
Страна: Италия
Жанр: мультфильм, комедия, приключения
Продолжительность: 01:34:04
Год выпуска: 2012
Перевод: Профессиональный (дублированный)
Оригинальная аудиодорожка: Итальянский
Субтитры: Русские, Итальянские--Режиссёр: Иджиниo Cтpaффи / Iginiо Strаffi--Роли озвучивали: Даниэла Аббруццезе, Стефано Алессандрони, Лука Арджентеро, Энцо Аволио, Барбара Барнс, Тим Бекманн, Antonio Bonanotte, Фабрицио Буччи, Даниэла Кало...--Описание: Страшное извержение вулкана разрушает город Помпеи, и маленький Тим остается сиротой. Его спаситель, генерал Кирон, отправляет Тима в школу гладиаторов, но юный лентяй упорно не желает становиться бойцом. Повзрослев, Тим влюбляется в красавицу Лючиллу. Но чтобы покорить её сердце, нужно стать настоящим героем. Прекрасная Диана, богиня охоты и мастер по гладиаторским боям, берется за тренировки Тима перед первым боем. Но получится ли у Тима победить самого себя и стать настоящим мужчиной?--Доп. информация: | IMDB | КиноПоиск | Сэмпл | --Качество: BDRip 720p
Формат: MKV
Видео: AVC, 1280x544 (2.35:1), 3945 kbps, 23.976 fps, 0.236 bit/pixel
Аудио 1: AC3 Dolby Digital, 3/2 (L,C,R,l,r) + LFE ch, 48.0 KHz, 640 Kbps | Дубляж. Русский |
Аудио 2: AC3 Dolby Digital, 3/2 (L,C,R,l,r) + LFE ch, 48.0 KHz, 448 Kbps | Дубляж. Украинский |
Аудио 3: AC3 Dolby Digital, 2/0 (L,R) ch, 48 kHz, 192 kbps | MVO. Грузинский |
Аудио 4: AC3 Dolby Digital, 3/2 (L,C,R,l,r) + LFE ch, 48.0 KHz, 640 Kbps | Оригинал. Итальянский |
Субтитры: Русские (Полные), Итальянские (SDH)

Скриншоты

Подробные технические данные

x264

x264 [info]: profile High, level 4.1
x264 [info]: frame I:1560 Avg QP:14.99 size:149601
x264 [info]: frame P:35457 Avg QP:16.62 size: 39185
x264 [info]: frame B:98319 Avg QP:19.28 size: 11808
x264 [info]: consecutive B-frames: 4.7% 4.4% 14.6% 31.5% 14.8% 25.3% 1.5% 0.7% 0.6% 0.3% 0.3% 1.0%
x264 [info]: mb I I16..4: 3.6% 70.8% 25.6%
x264 [info]: mb P I16..4: 1.1% 13.2% 2.6% P16..4: 26.2% 18.9% 14.0% 0.0% 0.0% skip:24.0%
x264 [info]: mb B I16..4: 0.2% 1.5% 0.5% B16..8: 24.5% 10.8% 4.6% direct: 5.0% skip:53.0% L0:38.7% L1:42.1% BI:19.2%
x264 [info]: 8x8 transform intra:75.0% inter:58.1%
x264 [info]: coded y,uvDC,uvAC intra: 88.5% 92.8% 82.0% inter: 20.6% 20.4% 10.1%
x264 [info]: i16 v,h,dc,p: 50% 12% 5% 33%
x264 [info]: i8 v,h,dc,ddl,ddr,vr,hd,vl,hu: 13% 15% 8% 8% 11% 10% 11% 11% 13%
x264 [info]: i4 v,h,dc,ddl,ddr,vr,hd,vl,hu: 9% 11% 4% 8% 16% 14% 14% 11% 13%
x264 [info]: i8c dc,h,v,p: 44% 22% 17% 16%
x264 [info]: Weighted P-Frames: Y:3.7% UV:2.1%
x264 [info]: ref P L0: 60.3% 13.3% 10.8% 4.5% 3.1% 2.4% 1.9% 1.3% 1.1% 1.2% 0.1% 0.0%
x264 [info]: ref B L0: 81.4% 8.2% 4.1% 2.1% 1.5% 1.1% 0.9% 0.5% 0.3%
x264 [info]: ref B L1: 95.4% 4.6%
x264 [info]: kb/s:3945.33
General
Unique ID : 220153614261403946647592386729013446803 (0xA5A00B36F15F160291888C909C7C8893)
Complete name : Gladiatori di Roma (2012).mkv
Format : Matroska
Format version : Version 4 / Version 2
File size : 3.86 GiB
Duration : 1 h 34 min
Overall bit rate : 5 868 kb/s
Movie name : Гладиаторы Рима / Gladiatori di Roma (2012)
Encoded date : UTC 2018-04-23 21:01:49
Writing application : mkvmerge v8.1.0 ('Psychedelic Postcard') 64bit
Writing library : libebml v1.3.1 + libmatroska v1.4.2
Cover : Yes
Attachments : cover.jpg
Video
ID : 1
Format : AVC
Format/Info : Advanced Video Codec
Format profile : High@L4.1
Format settings : CABAC / 10 Ref Frames
Format settings, CABAC : Yes
Format settings, ReFrames : 10 frames
Codec ID : V_MPEG4/ISO/AVC
Duration : 1 h 34 min
Bit rate : 3 945 kb/s
Width : 1 280 pixels
Height : 544 pixels
Display aspect ratio : 2.35:1
Frame rate mode : Constant
Frame rate : 23.976 (24000/1001) FPS
Color space : YUV
Chroma subsampling : 4:2:0
Bit depth : 8 bits
Scan type : Progressive
Bits/(Pixel*Frame) : 0.236
Stream size : 2.59 GiB (67%)
Title : Gladiatori di Roma (2012) By optik.1557
Writing library : x264 core 155 r2901 7d0ff22
Encoding settings : cabac=1 / ref=10 / deblock=1:-2:-1 / analyse=0x3:0x113 / me=umh / subme=10 / psy=1 / psy_rd=1.05:0.01 / mixed_ref=1 / me_range=32 / chroma_me=1 / trellis=2 / 8x8dct=1 / cqm=0 / deadzone=21,11 / fast_pskip=0 / chroma_qp_offset=-3 / threads=6 / lookahead_threads=1 / sliced_threads=0 / nr=0 / decimate=1 / interlaced=0 / bluray_compat=0 / constrained_intra=0 / bframes=11 / b_pyramid=2 / b_adapt=2 / b_bias=0 / direct=1 / weightb=1 / open_gop=0 / weightp=2 / keyint=250 / keyint_min=23 / scenecut=40 / intra_refresh=0 / rc_lookahead=60 / rc=crf / mbtree=0 / crf=16.7 / qcomp=0.70 / qpmin=0 / qpmax=69 / qpstep=4 / vbv_maxrate=50000 / vbv_bufsize=62500 / crf_max=0.0 / nal_hrd=none / filler=0 / ip_ratio=1.40 / pb_ratio=1.30 / aq=3:0.85
Language : Italian
Default : Yes
Forced : No
Color range : Limited
Color primaries : BT.709
Transfer characteristics : BT.709
Matrix coefficients : BT.709
Audio #1
ID : 2
Format : AC-3
Format/Info : Audio Coding 3
Codec ID : A_AC3
Duration : 1 h 34 min
Bit rate mode : Constant
Bit rate : 640 kb/s
Channel(s) : 6 channels
Channel positions : Front: L C R, Side: L R, LFE
Sampling rate : 48.0 kHz
Frame rate : 31.250 FPS (1536 SPF)
Bit depth : 16 bits
Compression mode : Lossy
Stream size : 431 MiB (11%)
Title : Дубляж
Language : Russian
Service kind : Complete Main
Default : Yes
Forced : No
Audio #2
ID : 3
Format : AC-3
Format/Info : Audio Coding 3
Codec ID : A_AC3
Duration : 1 h 34 min
Bit rate mode : Constant
Bit rate : 448 kb/s
Channel(s) : 6 channels
Channel positions : Front: L C R, Side: L R, LFE
Sampling rate : 48.0 kHz
Frame rate : 31.250 FPS (1536 SPF)
Bit depth : 16 bits
Compression mode : Lossy
Stream size : 301 MiB (8%)
Title : Дубляж
Language : Ukrainian
Service kind : Complete Main
Default : No
Forced : No
Audio #3
ID : 4
Format : AC-3
Format/Info : Audio Coding 3
Codec ID : A_AC3
Duration : 1 h 34 min
Bit rate mode : Constant
Bit rate : 192 kb/s
Channel(s) : 2 channels
Channel positions : Front: L R
Sampling rate : 48.0 kHz
Frame rate : 31.250 FPS (1536 SPF)
Bit depth : 16 bits
Compression mode : Lossy
Stream size : 129 MiB (3%)
Title : MVO
Language : Georgian
Service kind : Complete Main
Default : No
Forced : No
Audio #4
ID : 5
Format : AC-3
Format/Info : Audio Coding 3
Codec ID : A_AC3
Duration : 1 h 34 min
Bit rate mode : Constant
Bit rate : 640 kb/s
Channel(s) : 6 channels
Channel positions : Front: L C R, Side: L R, LFE
Sampling rate : 48.0 kHz
Frame rate : 31.250 FPS (1536 SPF)
Bit depth : 16 bits
Compression mode : Lossy
Stream size : 431 MiB (11%)
Title : Original
Language : Italian
Service kind : Complete Main
Default : No
Forced : No
Text #1
ID : 6
Format : UTF-8
Codec ID : S_TEXT/UTF8
Codec ID/Info : UTF-8 Plain Text
Duration : 1 h 28 min
Bit rate : 74 b/s
Count of elements : 852
Stream size : 48.6 KiB (0%)
Title : Полные
Language : Russian
Default : No
Forced : No
Text #2
ID : 7
Format : UTF-8
Codec ID : S_TEXT/UTF8
Codec ID/Info : UTF-8 Plain Text
Duration : 1 h 28 min
Bit rate : 57 b/s
Count of elements : 935
Stream size : 37.2 KiB (0%)
Title : SDH
Language : Italian
Default : No
Forced : No
Menu
00:00:00.000 : en:Chapter 1
00:05:49.807 : en:Chapter 2
00:13:47.034 : en:Chapter 3
00:19:00.139 : en:Chapter 4
00:25:01.416 : en:Chapter 5
00:31:26.426 : en:Chapter 6
00:35:59.031 : en:Chapter 7
00:42:21.205 : en:Chapter 8
00:47:07.866 : en:Chapter 9
00:52:27.227 : en:Chapter 10
00:56:24.089 : en:Chapter 11
01:03:29.806 : en:Chapter 12
01:08:41.283 : en:Chapter 13
01:13:22.648 : en:Chapter 14
01:17:42.282 : en:Chapter 15
01:23:48.356 : en:Chapter 16
Вы не можете начинать темы
Вы не можете отвечать на сообщения
Вы не можете редактировать свои сообщения
Вы не можете удалять свои сообщения
Вы не можете голосовать в опросах
Вы не можете прикреплять файлы к сообщениям
Вы можете скачивать файлы
!ВНИМАНИЕ!

Сайт не предоставляет электронные версии произведений, а занимается лишь коллекционированием и каталогизацией ссылок, присылаемых и публикуемых на форуме нашими читателями. Если вы являетесь правообладателем какого-либо представленного материала и не желаете, чтобы ссылка на него находилась в нашем каталоге, свяжитесь с нами, и мы незамедлительно удалим ее. Файлы для обмена на трекере предоставлены пользователями сайта, и администрация не несет ответственности за их содержание. Просьба не заливать файлы, защищенные авторскими правами, а также файлы нелегального содержания!

Искали программы, игры, дополнения, музыка mp3, аниме, аудио книги, журналы? Добро пожаловать на свободный торрент трекер Torrents, у нас можно скачать бесплатно, без смс и регистрации и прочих ограничений лучшие, отборные сборки программ, игр. Скачать торрентом не составит труда даже не опытному пользователю. Раздачи ежедневно обновляются, только лучшие и качественные раздачи, подробные описания и скриншоты. Огромная коллекция программ для работы со звуком, графикой, дизайном, а так же множество плагинов и инструментов к ним с подробной инструкцией и рекомендациями. Прошивки для навигаторов, карты. Разнообразные игры, для Windows, Linux. В коллекцие есть и старые игры любых жанров, Rpg, Action, Shooter, strategy Множество дополнений, модификаций, сценариев для популярных игр в жанре экш, рпг, гонки, стратегии, логические игры. Множество аддонов и сценариев для Microsoft Flight Simulator Большая коллекция книг, учебников. Если нет возможности купить печатное издание - смело скачивайте цифровую версию книги или, быть может, журнала. Не любите читать - можно загрузить бесплатно аудикнигу. Для веб дизайнеров и программистов так же найдется множество специализированного софта, таких как: редакторы с подсветкой, среды программирования, компоненты, системы управления базами данных, разнообразные скрипты и шаблоны. Не так давно у нас появился материал для автолюбителей и владельцев мото - оригинальные и неоригинальные каталоги запчастей, книги и журналы по ремонту и обслуживанию, видеоуроки, статьи по чип тюнингу, прошивкам. Процедура получения контента элементарная, достаточно просто скачать торрент файл и добавить его в загрузку в вашем торрент клиенте. Если у вас нет специального торрент клиента, вы можете его скачать у нас.