Экстремальный Гуфи / Неисправимый Гуфи / Экстремальный спорт / An Extremely Goofy Movie (Дуглас МакКарти / Douglas McCarthy) [2000, США, Австралия, комедия, семейный, WEB-DL 1080p] Dub + MVO + AVO (Юрий Живов) + VO (Hide) + Eng + Sub Rus,Eng 

Цитировать
Экстремальный Гуфи / Неисправимый Гуфи / Экстремальный спорт / An Extremely Goofy Movie
Страна: США, Австралия
Жанр: комедия, семейный
Продолжительность: 01:18:57
Год выпуска: 2000
Перевод 1: Профессиональный (дублированный)
Перевод 2: Профессиональный (многоголосый закадровый)
Перевод 3: Авторский (одноголосый закадровый) Юрий Живов
Перевод 4: Одноголосый закадровый Hide
Русские субтитры: есть
Режиссёр: Дуглас МакКарти / Douglas McCarthy
Описание:
Гуфи потерял работу и решил, что без диплома колледжа другую работу ему не получить. Поэтому он появляется в колледже своего сына, у которого все было так хорошо до приезда отца. Но планы Гуфи срываются, а отношения с сыном подвергаются серьезному испытанию.
Доп. информация: Звуковые дорожки и субтитры с раздачи -Azureus-, добавлены без пересинхронизации.
- За предоставление дубляжа, спасибо xfiles
- За предоставление многоголоски и русских сабов, спасибо ces2003
- Работа со звуком -Azureus-

Сэмпл: http://multi-up.com/1195755
Качество: WEB-DL 1080p Amazon
Формат: MKV
Видео: 1920x1080 (16:9), 23.976 fps, AVC, ~4472 Kbps, 0.090 bits/pixel
Аудио 1: Russian, 48.0 KHz, AC3, 2 ch, 192 Kbps - DUB
Аудио 2: Russian, 48.0 KHz, AC3, 6 ch, 384 Kbps - MVO
Аудио 3: Russian, 48.0 KHz, AC3, 2 ch, 192 Kbps - Юрий Живов
Аудио 4: Russian, 48.0 KHz, AC3, 2 ch, 192 Kbps - Hide
Аудио 5: English, 48.0 KHz, AC3+, 6 ch, 640 Kbps
Субтитры: русские, английские

Подробные технические данные

GeneralUnique ID                   : 251755366609963460813678444518118683040 (0xBD6651E65EF5A03774F154A6815A71A0)Complete name               : C:\An Extremely Goofy Movie. WEB-DL 1080p.mkvFormat                      : MatroskaFormat version              : Version 4 / Version 2File size                   : 3.42 GiBDuration                    : 1 h 18 minOverall bit rate mode       : VariableOverall bit rate            : 6 195 kb/sMovie name                  : An Extremely Goofy Movie.2000.WEB-DL 1080p -Azureus-Encoded date                : UTC 2018-04-21 14:09:49Writing application         : mkvmerge v22.0.0 ('At The End Of The World') 64-bitWriting library             : libebml v1.3.5 + libmatroska v1.4.8
VideoID : 1Format : AVCFormat/Info : Advanced Video CodecFormat profile : High@L4Format settings : CABAC / 4 Ref FramesFormat settings, CABAC : YesFormat settings, ReFrames : 4 framesCodec ID : V_MPEG4/ISO/AVCDuration : 1 h 18 minBit rate mode : VariableBit rate : 4 592 kb/sMaximum bit rate : 15.0 Mb/sWidth : 1 920 pixelsHeight : 1 080 pixelsDisplay aspect ratio : 16:9Frame rate mode : ConstantFrame rate : 23.976 (24000/1001) FPSColor space : YUVChroma subsampling : 4:2:0Bit depth : 8 bitsScan type : ProgressiveBits/(Pixel*Frame) : 0.092Stream size : 2.53 GiB (74%)Writing library : x264 core 148 r2623 d5b2374Encoding settings : cabac=1 / ref=4 / deblock=1:-1:-1 / analyse=0x3:0x133 / me=umh / subme=9 / psy=1 / psy_rd=1.00:0.15 / mixed_ref=1 / me_range=24 / chroma_me=1 / trellis=2 / 8x8dct=1 / cqm=0 / deadzone=21,11 / fast_pskip=1 / chroma_qp_offset=-3 / threads=34 / lookahead_threads=5 / sliced_threads=0 / nr=150 / decimate=1 / interlaced=0 / bluray_compat=0 / constrained_intra=0 / bframes=8 / b_pyramid=2 / b_adapt=2 / b_bias=0 / direct=3 / weightb=1 / open_gop=0 / weightp=2 / keyint=120 / keyint_min=61 / scenecut=0 / intra_refresh=0 / rc_lookahead=120 / rc=crf / mbtree=1 / crf=18.0 / qcomp=0.60 / qpmin=0 / qpmax=69 / qpstep=4 / vbv_maxrate=15000 / vbv_bufsize=31250 / crf_max=0.0 / nal_hrd=vbr / filler=0 / ip_ratio=1.40 / aq=3:1.00Language : EnglishDefault : YesForced : NoColor range : LimitedColor primaries : BT.709Transfer characteristics : BT.709Matrix coefficients : BT.709
Audio #1ID : 2Format : AC-3Format/Info : Audio Coding 3Codec ID : A_AC3Duration : 1 h 18 minBit rate mode : ConstantBit rate : 192 kb/sChannel(s) : 2 channelsChannel positions : Front: L RSampling rate : 48.0 kHzFrame rate : 31.250 FPS (1536 SPF)Bit depth : 16 bitsCompression mode : LossyStream size : 108 MiB (3%)Title : DUBLanguage : RussianService kind : Complete MainDefault : YesForced : No
Audio #2ID : 3Format : AC-3Format/Info : Audio Coding 3Codec ID : A_AC3Duration : 1 h 18 minBit rate mode : ConstantBit rate : 384 kb/sChannel(s) : 6 channelsChannel positions : Front: L C R, Side: L R, LFESampling rate : 48.0 kHzFrame rate : 31.250 FPS (1536 SPF)Bit depth : 16 bitsCompression mode : LossyStream size : 217 MiB (6%)Title : MVOLanguage : RussianService kind : Complete MainDefault : NoForced : No
Audio #3ID : 4Format : AC-3Format/Info : Audio Coding 3Codec ID : A_AC3Duration : 1 h 18 minBit rate mode : ConstantBit rate : 192 kb/sChannel(s) : 2 channelsChannel positions : Front: L RSampling rate : 48.0 kHzFrame rate : 31.250 FPS (1536 SPF)Bit depth : 16 bitsCompression mode : LossyStream size : 108 MiB (3%)Title : Юрий ЖивовLanguage : RussianService kind : Complete MainDefault : NoForced : No
Audio #4ID : 5Format : AC-3Format/Info : Audio Coding 3Codec ID : A_AC3Duration : 1 h 18 minBit rate mode : ConstantBit rate : 192 kb/sChannel(s) : 2 channelsChannel positions : Front: L RSampling rate : 48.0 kHzFrame rate : 31.250 FPS (1536 SPF)Bit depth : 16 bitsCompression mode : LossyStream size : 108 MiB (3%)Title : HideLanguage : RussianService kind : Complete MainDefault : NoForced : No
Audio #5ID : 6Format : E-AC-3Format/Info : Enhanced Audio Coding 3Codec ID : A_EAC3Duration : 1 h 18 minBit rate mode : ConstantBit rate : 640 kb/sChannel(s) : 6 channelsChannel positions : Front: L C R, Side: L R, LFESampling rate : 48.0 kHzFrame rate : 187.500 FPS (256 SPF)Compression mode : LossyStream size : 361 MiB (10%)Language : EnglishService kind : Complete MainDefault : NoForced : No
Text #1ID : 7Format : UTF-8Codec ID : S_TEXT/UTF8Codec ID/Info : UTF-8 Plain TextDuration : 1 h 12 minBit rate : 112 b/sCount of elements : 1059Stream size : 59.8 KiB (0%)Language : RussianDefault : NoForced : No
Text #2ID : 8Format : UTF-8Codec ID : S_TEXT/UTF8Codec ID/Info : UTF-8 Plain TextDuration : 1 h 18 minBit rate : 72 b/sCount of elements : 1137Stream size : 41.6 KiB (0%)Language : EnglishDefault : NoForced : No
Menu00:00:00.000 : en:Main Title / Max's Last Night At Home00:07:14.000 : en:First Day Of The Rest Of Our Lives00:10:51.000 : en:Turmoil At The Toy Company00:15:10.000 : en:Making The Bean Scene00:20:50.000 : en:A Matter Of Degrees00:21:45.000 : en:Max's Worst Nightmare00:26:37.000 : en:Meeting Ms. Marpole00:30:44.000 : en:The Newest Gamma00:33:56.000 : en:Getting Down At Club Rave00:35:42.000 : en:"Shake Your Groove Thing"00:40:33.000 : en:The Qualifying Round / Father vs. Son00:46:28.000 : en:Mid-term Day Dreamin'00:49:45.000 : en:Regaining Focus00:51:00.000 : en:One Goof Too Many00:55:37.000 : en:Knuckling Down00:57:04.000 : en:Goodbye Gammas00:59:22.000 : en:The Semifinals / Now It's Personal01:02:15.000 : en:The Finals / Two Goofs Are Better Than One01:07:38.000 : en:Finishing With A Bang01:11:07.000 : en:Graduation Day01:13:10.000 : en:End Credits

Скриншоты

Вы не можете начинать темы
Вы не можете отвечать на сообщения
Вы не можете редактировать свои сообщения
Вы не можете удалять свои сообщения
Вы не можете голосовать в опросах
Вы не можете прикреплять файлы к сообщениям
Вы можете скачивать файлы
!ВНИМАНИЕ!

Сайт не предоставляет электронные версии произведений, а занимается лишь коллекционированием и каталогизацией ссылок, присылаемых и публикуемых на форуме нашими читателями. Если вы являетесь правообладателем какого-либо представленного материала и не желаете, чтобы ссылка на него находилась в нашем каталоге, свяжитесь с нами, и мы незамедлительно удалим ее. Файлы для обмена на трекере предоставлены пользователями сайта, и администрация не несет ответственности за их содержание. Просьба не заливать файлы, защищенные авторскими правами, а также файлы нелегального содержания!

Искали программы, игры, дополнения, музыка mp3, аниме, аудио книги, журналы? Добро пожаловать на свободный торрент трекер Torrents, у нас можно скачать бесплатно, без смс и регистрации и прочих ограничений лучшие, отборные сборки программ, игр. Скачать торрентом не составит труда даже не опытному пользователю. Раздачи ежедневно обновляются, только лучшие и качественные раздачи, подробные описания и скриншоты. Огромная коллекция программ для работы со звуком, графикой, дизайном, а так же множество плагинов и инструментов к ним с подробной инструкцией и рекомендациями. Прошивки для навигаторов, карты. Разнообразные игры, для Windows, Linux. В коллекцие есть и старые игры любых жанров, Rpg, Action, Shooter, strategy Множество дополнений, модификаций, сценариев для популярных игр в жанре экш, рпг, гонки, стратегии, логические игры. Множество аддонов и сценариев для Microsoft Flight Simulator Большая коллекция книг, учебников. Если нет возможности купить печатное издание - смело скачивайте цифровую версию книги или, быть может, журнала. Не любите читать - можно загрузить бесплатно аудикнигу. Для веб дизайнеров и программистов так же найдется множество специализированного софта, таких как: редакторы с подсветкой, среды программирования, компоненты, системы управления базами данных, разнообразные скрипты и шаблоны. Не так давно у нас появился материал для автолюбителей и владельцев мото - оригинальные и неоригинальные каталоги запчастей, книги и журналы по ремонту и обслуживанию, видеоуроки, статьи по чип тюнингу, прошивкам. Процедура получения контента элементарная, достаточно просто скачать торрент файл и добавить его в загрузку в вашем торрент клиенте. Если у вас нет специального торрент клиента, вы можете его скачать у нас.