Отряд Самоубийц: Адская Расплата / Suicide Squad: Hell to Pay (Сэм Лью / Sam Liu) [2018, мультфильм, боевик, BDRemux 1080p] 3 x MVO + Original Eng + rus, eng sub 

Цитировать

Отряд Самоубийц: Адская Расплата / Suicide Squad: Hell to Pay
«When the world needs the best, they call on the worst»
-Страна: США.
Жанр: Мультфильм, фантастика, боевик, приключения.
Продолжительность: 01:26:02
Год выпуска: 2018.
Перевод: Любительский (многоголосый закадровый) ZM-Show;
Любительский (многоголосый закадровый) Saint-Sound TV & BzekE;
Любительский (многоголосый закадровый) Flarrow Films.
Русские субтитры: Есть.
Режиссёр: Сэм Лью / Sam Liu.
Роли озвучивали: Кристиан Слэйтер, Си Томас Хауэлл, Тара Стронг, Ванесса Уильямс, Даня Рамирес, Билли Браун, Лиам МакИнтайр, Кристин Бауэр, Мэттью Мерсер, Гидеон Эмери.--Описание: Оперативная Группа X нацелена найти мощный мистический предмет, который им предстоит украсть рискуя своими жизнями.--

Роли озвучивали :

Saint Sound

Закадровые голоса: Алла Алёхина, Алеся Зеленко, Алла Гришина, Игорь Хрусталёв, Андрей Стакионис, Алексей Щегорский, Александр Луговский, Слава Бланк, Евгений Леонов, Константин Кураев, Макс Фривинг и Никита Аитов.
Релиз: -Благодарности:
Спасибо Saint Sound за любезно предоставленные чистые голоса;
Спасибо UGN SUBZ Translators за русские субтитры.-Качество: BDRemux 1080p
Формат: MKV
Видео кодек: AVC
Аудио кодек: DTS MA
Видео: 1920x1080 , 12.8 Mb/s / 23.976 fps / 16:9 / High Profile 4.1 / 8 bits
Аудио 1: DTS-HD Master Audio / 5.1 / 48 kHz / 2 219 kbps / 16-bit (DTS Core: 5.1 / 48 kHz / 1509 kbps / 16-bit) ZM-Show
Аудио 2: DTS-HD Master Audio / 5.1 / 48 kHz / 2 255 / 16-bit (DTS Core: 5.1 / 48 kHz / 1509 kbps / 16-bit) Saint Sound
Аудио 3: DTS-HD Master Audio / 5.1 / 48 kHz / 2 238 / 16-bit (DTS Core: 5.1 / 48 kHz / 1509 kbps / 16-bit) Flarrow Films
Аудио 4: DTS-HD Master Audio / 5.1 / 48 kHz / 2 467 kbps / 24-bit (DTS Core: 5.1 / 48 kHz / 1509 kbps / 24-bit) English
Субтитры: Русские (Форсированные), Русские (Перевод группы UGN SUBZ Translators), English.
Навигация по главам: 9 глав (не именных)

MInfo

GeneralUnique ID                   : 228552901622632862767955920446038164689 (0xABF1B00DD6B55301BB8F70FF46FF44D1)Complete name               : G:\Bobropandavar\Suicide Squad Hell to Pay (2018) BDRemux 1080p Bobropandavar.mkvFormat                      : MatroskaFormat version              : Version 4 / Version 2File size                   : 13.2 GiBDuration                    : 1 h 26 minOverall bit rate mode       : VariableOverall bit rate            : 22.0 Mb/sEncoded date                : UTC 2018-09-15 08:39:08Writing application         : mkvmerge v25.0.0 ('Prog Noir') 64-bitWriting library             : libebml v1.3.6 + libmatroska v1.4.9Cover                       : YesAttachments                 : cover.jpg
VideoID : 1Format : AVCFormat/Info : Advanced Video CodecFormat profile : High@L4.1Format settings : CABAC / 4 Ref FramesFormat settings, CABAC : YesFormat settings, ReFrames : 4 framesCodec ID : V_MPEG4/ISO/AVCDuration : 1 h 26 minBit rate mode : VariableBit rate : 12.8 Mb/sMaximum bit rate : 28.0 Mb/sWidth : 1 920 pixelsHeight : 1 080 pixelsDisplay aspect ratio : 16:9Frame rate mode : ConstantFrame rate : 23.976 (24000/1001) FPSColor space : YUVChroma subsampling : 4:2:0Bit depth : 8 bitsScan type : ProgressiveBits/(Pixel*Frame) : 0.258Stream size : 7.72 GiB (58%)Language : EnglishDefault : YesForced : No
Audio #1ID : 2Format : DTSFormat/Info : Digital Theater SystemsFormat profile : MA / CoreCodec ID : A_DTSDuration : 1 h 26 minBit rate mode : Variable / ConstantBit rate : 2 219 kb/s / 1 509 kb/sChannel(s) : 6 channelsChannel positions : Front: L C R, Side: L R, LFESampling rate : 48.0 kHzFrame rate : 93.750 FPS (512 SPF)Bit depth : 16 bitsCompression mode : Lossless / LossyStream size : 1.33 GiB (10%)Title : ZM-ShowLanguage : RussianDefault : YesForced : No
Audio #2ID : 3Format : DTSFormat/Info : Digital Theater SystemsFormat profile : MA / CoreCodec ID : A_DTSDuration : 1 h 26 minBit rate mode : Variable / ConstantBit rate : 2 255 kb/s / 1 509 kb/sChannel(s) : 6 channelsChannel positions : Front: L C R, Side: L R, LFESampling rate : 48.0 kHzFrame rate : 93.750 FPS (512 SPF)Bit depth : 16 bitsCompression mode : Lossless / LossyStream size : 1.36 GiB (10%)Title : Saint Sound TVLanguage : RussianDefault : NoForced : No
Audio #3ID : 4Format : DTSFormat/Info : Digital Theater SystemsFormat profile : MA / CoreCodec ID : A_DTSDuration : 1 h 26 minBit rate mode : Variable / ConstantBit rate : 2 238 kb/s / 1 509 kb/sChannel(s) : 6 channelsChannel positions : Front: L C R, Side: L R, LFESampling rate : 48.0 kHzFrame rate : 93.750 FPS (512 SPF)Bit depth : 16 bitsCompression mode : Lossless / LossyStream size : 1.35 GiB (10%)Title : Flarrow FilmsLanguage : RussianDefault : NoForced : No
Audio #4ID : 5Format : DTSFormat/Info : Digital Theater SystemsFormat profile : MA / CoreCodec ID : A_DTSDuration : 1 h 26 minBit rate mode : Variable / ConstantBit rate : 2 466 kb/s / 1 509 kb/sChannel(s) : 6 channelsChannel positions : Front: L C R, Side: L R, LFESampling rate : 48.0 kHzFrame rate : 93.750 FPS (512 SPF)Bit depth : 24 bitsCompression mode : Lossless / LossyStream size : 1.48 GiB (11%)Title : EnglishLanguage : EnglishDefault : NoForced : No
Text #1ID : 6Format : UTF-8Codec ID : S_TEXT/UTF8Codec ID/Info : UTF-8 Plain TextDuration : 1 h 19 minBit rate : 0 b/sCount of elements : 13Stream size : 478 Bytes (0%)Title : Russian ForcedLanguage : RussianDefault : NoForced : No
Text #2ID : 7Format : UTF-8Codec ID : S_TEXT/UTF8Codec ID/Info : UTF-8 Plain TextDuration : 1 h 22 minBit rate : 84 b/sCount of elements : 880Stream size : 51.1 KiB (0%)Title : RussianLanguage : RussianDefault : NoForced : No
Text #3ID : 8Format : UTF-8Codec ID : S_TEXT/UTF8Codec ID/Info : UTF-8 Plain TextDuration : 1 h 25 minBit rate : 42 b/sCount of elements : 852Stream size : 26.7 KiB (0%)Title : EnglishLanguage : EnglishDefault : NoForced : No
Menu00:00:00.000 : en:Chapter 100:10:21.621 : en:Chapter 200:19:57.321 : en:Chapter 300:35:58.823 : en:Chapter 400:48:13.473 : en:Chapter 500:55:38.293 : en:Chapter 601:01:51.874 : en:Chapter 701:15:39.117 : en:Chapter 801:22:49.047 : en:Chapter 9

Скриншоты


-МОИ РАЗДАЧИ-НЕ ЗАБЫВАЕМ БЛАГОДАРИТЬ НАЖАТИЕМ КНОПОЧКИ "СПАСИБО"
Вы не можете начинать темы
Вы не можете отвечать на сообщения
Вы не можете редактировать свои сообщения
Вы не можете удалять свои сообщения
Вы не можете голосовать в опросах
Вы не можете прикреплять файлы к сообщениям
Вы можете скачивать файлы
!ВНИМАНИЕ!

Сайт не предоставляет электронные версии произведений, а занимается лишь коллекционированием и каталогизацией ссылок, присылаемых и публикуемых на форуме нашими читателями. Если вы являетесь правообладателем какого-либо представленного материала и не желаете, чтобы ссылка на него находилась в нашем каталоге, свяжитесь с нами, и мы незамедлительно удалим ее. Файлы для обмена на трекере предоставлены пользователями сайта, и администрация не несет ответственности за их содержание. Просьба не заливать файлы, защищенные авторскими правами, а также файлы нелегального содержания!

Искали программы, игры, дополнения, музыка mp3, аниме, аудио книги, журналы? Добро пожаловать на свободный торрент трекер Torrents, у нас можно скачать бесплатно, без смс и регистрации и прочих ограничений лучшие, отборные сборки программ, игр. Скачать торрентом не составит труда даже не опытному пользователю. Раздачи ежедневно обновляются, только лучшие и качественные раздачи, подробные описания и скриншоты. Огромная коллекция программ для работы со звуком, графикой, дизайном, а так же множество плагинов и инструментов к ним с подробной инструкцией и рекомендациями. Прошивки для навигаторов, карты. Разнообразные игры, для Windows, Linux. В коллекцие есть и старые игры любых жанров, Rpg, Action, Shooter, strategy Множество дополнений, модификаций, сценариев для популярных игр в жанре экш, рпг, гонки, стратегии, логические игры. Множество аддонов и сценариев для Microsoft Flight Simulator Большая коллекция книг, учебников. Если нет возможности купить печатное издание - смело скачивайте цифровую версию книги или, быть может, журнала. Не любите читать - можно загрузить бесплатно аудикнигу. Для веб дизайнеров и программистов так же найдется множество специализированного софта, таких как: редакторы с подсветкой, среды программирования, компоненты, системы управления базами данных, разнообразные скрипты и шаблоны. Не так давно у нас появился материал для автолюбителей и владельцев мото - оригинальные и неоригинальные каталоги запчастей, книги и журналы по ремонту и обслуживанию, видеоуроки, статьи по чип тюнингу, прошивкам. Процедура получения контента элементарная, достаточно просто скачать торрент файл и добавить его в загрузку в вашем торрент клиенте. Если у вас нет специального торрент клиента, вы можете его скачать у нас.