Монстры на каникулах 3: Море зовёт / Hotel Transylvania 3: Summer Vacation (Генндий Тартаковский / Genndy Tartakovsky) [2018, США, Мультипликация, WEB-DL 1080p] Dub (Rus, Ukr) (iTunes) + Rus, Ukr Sub 

Цитировать
Монстры на каникулах 3: Море зовёт / Hotel Transylvania 3: Summer Vacation
-Страна: США
Жанр: Мультипликация
Продолжительность: 01:37:20
Год выпуска: 2018
Перевод: Профессиональный (дублированный) [iTunes]
Русские субтитры: есть-Режиссёр: Генндий Тартаковский / Genndy Tartakovsky
Роли озвучивали: Мэл Брукс, Адам Сэндлер, Селена Гомес, Энди Сэмберг, Кэтрин Хан, Фрэн Дрешер, Стив Бушеми, Дэвид Спейд, Тара Стронг, Кигэн-Майкл Ки-Описание: На этот раз Дракула вместе со своими друзьями отправляется в круиз на шикарном лайнере. Развлечения там на любой вкус: от монстробаскетбола и экзотических экскурсий, до лунных ванн. Неожиданно Дракула влюбляется в капитана корабля — загадочную и прекрасную Эрику, и его дочка Мэвис понимает, что поездка может превратиться в кошмар: ведь Эрика хранит ужасный секрет, который ставит под угрозу существование всех монстров!-Качество: WEB-DL 1080p
Формат: MKV
Видео: AVC, 1920x1032, 5119 Kbit/s, 23.976 fps
Аудио 1: AC-3, 48.0 KHz, 6 ch, 384 Kbps, CBR (Russian)
Аудио 2: AAC LC, 48.0 KHz, 2 ch, 127 Kbps (Ukrainian)
Аудио 3: AC-3, 48.0 KHz, 6 ch, 384 Kbps, CBR (English)
Субтитры: Русские (forced, full), украинские (full), английские
Семпл: Забираем тут

Подробные технические данные

ОбщееУникальный идентификатор                 : 217998111581188096692518633641551107302 (0xA400E8BA36EA723F9FE9053B0F8894E6)Полное имя                               : Hotel Transylvania 3 WEB-DL 1080p Rus Ukr Eng TeamHD.mkvФормат                                   : MatroskaВерсия формата                           : Version 4 / Version 2Размер файла                             : 4,09 ГбайтПродолжительность                        : 1 ч. 37 м.Общий поток                              : 6017 Кбит/секНазвание фильма                          : Hotel Transylvania 3: Summer Vacation (2018) TeamHDДата кодирования                         : UTC 2018-09-24 18:37:09Программа кодирования                    : mkvmerge v7.3.0 ('Nouages') 64bit built on Oct 22 2014 18:53:34Библиотека кодирования                   : libebml v1.3.0 + libmatroska v1.4.1
ВидеоИдентификатор : 1Формат : AVCФормат/Информация : Advanced Video CodecПрофиль формата : High@L4Параметр CABAC формата : ДаПараметр ReFrames формата : 4 кадраИдентификатор кодека : V_MPEG4/ISO/AVCПродолжительность : 1 ч. 37 м.Битрейт : 5119 Кбит/секШирина : 1920 пикселейВысота : 1032 пикселяСоотношение сторон : 1,85:1Режим частоты кадров : ПостоянныйЧастота кадров : 23,976 (23976/1000) кадра/секЦветовое пространство : YUVСубдискретизация насыщенности : 4:2:0Битовая глубина : 8 битТип развёртки : ПрогрессивнаяБит/(Пиксели*Кадры) : 0.108Размер потока : 3,48 Гбайт (85%)Язык : EnglishDefault : ДаForced : НетЦветовой диапазон : LimitedОсновные цвета : BT.709Характеристики трансфера : BT.709Коэффициенты матрицы : BT.709
Аудио #1Идентификатор : 2Формат : AC-3Формат/Информация : Audio Coding 3Расширение режима : CM (complete main)Параметр Endianness формата : BigИдентификатор кодека : A_AC3Продолжительность : 1 ч. 37 м.Вид битрейта : ПостоянныйБитрейт : 384 Кбит/секКаналы : 6 каналовРасположение каналов : Front: L C R, Side: L R, LFEЧастота : 48,0 КГцЧастота кадров : 31,250 кадров/сек (1536 spf)Метод сжатия : С потерямиРазмер потока : 267 Мбайт (6%)Заголовок : iTunesЯзык : RussianDefault : ДаForced : Да
Аудио #2Идентификатор : 3Формат : AACФормат/Информация : Advanced Audio CodecПрофиль формата : LCИдентификатор кодека : A_AACПродолжительность : 1 ч. 37 м.Битрейт : 127 Кбит/секКаналы : 2 каналаРасположение каналов : Front: L RЧастота : 48,0 КГцЧастота кадров : 46,875 кадров/сек (1024 spf)Метод сжатия : С потерямиРазмер потока : 88,3 Мбайт (2%)Заголовок : iTunesЯзык : UkrainianDefault : НетForced : Нет
Аудио #3Идентификатор : 4Формат : AC-3Формат/Информация : Audio Coding 3Расширение режима : CM (complete main)Параметр Endianness формата : BigИдентификатор кодека : A_AC3Продолжительность : 1 ч. 37 м.Вид битрейта : ПостоянныйБитрейт : 384 Кбит/секКаналы : 6 каналовРасположение каналов : Front: L C R, Side: L R, LFEЧастота : 48,0 КГцЧастота кадров : 31,250 кадров/сек (1536 spf)Метод сжатия : С потерямиРазмер потока : 267 Мбайт (6%)Заголовок : OriginalЯзык : EnglishDefault : НетForced : Нет
Текст #1Идентификатор : 5Формат : UTF-8Идентификатор кодека : S_TEXT/UTF8Идентификатор кодека/Информация : UTF-8 Plain TextПродолжительность : 1 ч. 36 м.Битрейт : 0 бит/секCount of elements : 5Размер потока : 171 байт (0%)Заголовок : ForcedЯзык : RussianDefault : ДаForced : Да
Текст #2Идентификатор : 6Формат : UTF-8Идентификатор кодека : S_TEXT/UTF8Идентификатор кодека/Информация : UTF-8 Plain TextПродолжительность : 1 ч. 36 м.Битрейт : 76 бит/секCount of elements : 1118Размер потока : 54,4 Кбайт (0%)Заголовок : FullЯзык : RussianDefault : НетForced : Нет
Текст #3Идентификатор : 7Формат : UTF-8Идентификатор кодека : S_TEXT/UTF8Идентификатор кодека/Информация : UTF-8 Plain TextПродолжительность : 1 ч. 36 м.Битрейт : 71 бит/секCount of elements : 1118Размер потока : 50,4 Кбайт (0%)Заголовок : FullЯзык : UkrainianDefault : НетForced : Нет
Текст #4Идентификатор : 8Формат : UTF-8Идентификатор кодека : S_TEXT/UTF8Идентификатор кодека/Информация : UTF-8 Plain TextПродолжительность : 1 ч. 26 м.Битрейт : 47 бит/секCount of elements : 1098Размер потока : 30,1 Кбайт (0%)Заголовок : FullЯзык : EnglishDefault : НетForced : Нет
Текст #5Идентификатор : 9Формат : UTF-8Идентификатор кодека : S_TEXT/UTF8Идентификатор кодека/Информация : UTF-8 Plain TextПродолжительность : 1 ч. 26 м.Битрейт : 47 бит/секCount of elements : 1098Размер потока : 30,1 Кбайт (0%)Заголовок : SDHЯзык : EnglishDefault : НетForced : Нет
Меню00:00:00.000 : en:100:04:28.935 : en:200:09:34.824 : en:300:16:02.044 : en:400:20:03.075 : en:500:24:34.930 : en:600:31:12.535 : en:700:36:49.205 : en:800:44:04.723 : en:900:49:57.699 : en:1000:54:49.740 : en:1101:00:34.875 : en:1201:06:12.003 : en:1301:10:32.262 : en:1401:13:46.371 : en:1501:24:56.541 : en:16

Скриншоты


Вы не можете начинать темы
Вы не можете отвечать на сообщения
Вы не можете редактировать свои сообщения
Вы не можете удалять свои сообщения
Вы не можете голосовать в опросах
Вы не можете прикреплять файлы к сообщениям
Вы можете скачивать файлы
!ВНИМАНИЕ!

Сайт не предоставляет электронные версии произведений, а занимается лишь коллекционированием и каталогизацией ссылок, присылаемых и публикуемых на форуме нашими читателями. Если вы являетесь правообладателем какого-либо представленного материала и не желаете, чтобы ссылка на него находилась в нашем каталоге, свяжитесь с нами, и мы незамедлительно удалим ее. Файлы для обмена на трекере предоставлены пользователями сайта, и администрация не несет ответственности за их содержание. Просьба не заливать файлы, защищенные авторскими правами, а также файлы нелегального содержания!

Искали программы, игры, дополнения, музыка mp3, аниме, аудио книги, журналы? Добро пожаловать на свободный торрент трекер Torrents, у нас можно скачать бесплатно, без смс и регистрации и прочих ограничений лучшие, отборные сборки программ, игр. Скачать торрентом не составит труда даже не опытному пользователю. Раздачи ежедневно обновляются, только лучшие и качественные раздачи, подробные описания и скриншоты. Огромная коллекция программ для работы со звуком, графикой, дизайном, а так же множество плагинов и инструментов к ним с подробной инструкцией и рекомендациями. Прошивки для навигаторов, карты. Разнообразные игры, для Windows, Linux. В коллекцие есть и старые игры любых жанров, Rpg, Action, Shooter, strategy Множество дополнений, модификаций, сценариев для популярных игр в жанре экш, рпг, гонки, стратегии, логические игры. Множество аддонов и сценариев для Microsoft Flight Simulator Большая коллекция книг, учебников. Если нет возможности купить печатное издание - смело скачивайте цифровую версию книги или, быть может, журнала. Не любите читать - можно загрузить бесплатно аудикнигу. Для веб дизайнеров и программистов так же найдется множество специализированного софта, таких как: редакторы с подсветкой, среды программирования, компоненты, системы управления базами данных, разнообразные скрипты и шаблоны. Не так давно у нас появился материал для автолюбителей и владельцев мото - оригинальные и неоригинальные каталоги запчастей, книги и журналы по ремонту и обслуживанию, видеоуроки, статьи по чип тюнингу, прошивкам. Процедура получения контента элементарная, достаточно просто скачать торрент файл и добавить его в загрузку в вашем торрент клиенте. Если у вас нет специального торрент клиента, вы можете его скачать у нас.