Смерть Супермена / The Death of Superman (Джейк Касторена / Jake Castorena, Сэм Лью / Sam Liu) [2018, США, мультфильм, фантастика, боевик, UHD BDRemux 2160p] 3 x MVO + DVO + Original Eng + rus, eng sub 

Цитировать

Смерть Супермена / The Death of Superman
-Страна: США.
Жанр: Мультфильм, боевик, фантастика.
Продолжительность: 01:20:56
Год выпуска: 2018.
Перевод: Любительский (двухголосый закадровый) ZM-Show;
Любительский (многоголосый закадровый) Saint Sound;
Любительский (многоголосый закадровый) HDRezka Studio;
Любительский (многоголосый закадровый) Flarrow Films
Русские субтитры: Есть (UGN SUBZ Translators)
Режиссёр: Джейк Касторена / Jake Castorena, Сэм Лью / Sam Liu.
Роли озвучивали: Розарио Доусон, Джерри О`Коннелл, Рэйн Уилсон, Шемар Мур, Натан Филлион, Мэтт Лантер, Патрик Фабиан, Джейсон О’Мара, Роки Кэрролл, Кристофер Горам.--Описание: Кларк Кент подумывает о том, чтобы раскрыть возлюбленной, Лоис Лэйн, свой самый большой секрет - что он является Суперменом. В это же время на Землю прибывает страшное чудовище Думсдэй, обладающее невероятной силой и злобой. Все супергерои в составе Лиги справедливости с трудом сдерживают монстра, поэтому Супермену придётся отложить свои личные дела и постараться помочь товарищам победить врага.--

Роли озвучивали :

Saint Sound

Закадровые голоса: Алексей Щегорский, Василий Дидляков, Ланселап, Евгений Леонов, Екатерина Дмитрова, Никита Аитов, Александр Луговский,Slava Blank и Софья Лисовская.
Релиз: -Благодарности:
Спасибо dartrody и ZM-SHOW за любезно предоставленные чистые голоса;
Спасибо Saint Sound за любезно предоставленные чистые голоса;-Качество: UHD BDRemux 2160p
Формат: MKV
Видео кодек: AVC
Аудио кодек: AC3, DTS MA
Видео: MPEG-H HEVC Video / 3840x2160 / 70.9 Mb/s / 23.976 fps / 16:9 / Main 10 Profile 5.1 High / 4:2:0 / 10 bits / HDR / BT.2020 /
Аудио 1: DTS-HD Master Audio / 5.1 / 48 kHz / 2114 kbps / 16-bit (DTS Core: 5.1 / 48 kHz / 1509 kbps / 16-bit) ZM-Show
Аудио 2: DTS-HD Master Audio / 5.1 / 48 kHz / 2118 kbps / 16-bit (DTS Core: 5.1 / 48 kHz / 1509 kbps / 16-bit) Saint Sound
Аудио 3: AC3, 2/0 (L,R) ch, 192 kbps, Delay 0 mSec HDRezka Studio
Аудио 4: AC3, 2/0 (L,R) ch, 192 kbps, Delay 0 mSec Flarrow Films
Аудио 5: DTS-HD Master Audio / 5.1 / 48 kHz / 2318 kbps / 24-bit (DTS Core: 5.1 / 48 kHz / 1509 kbps / 24-bit) English
Субтитры: Русский (UGN SUBZ Translators), English.
Навигация по главам: 9 глав (не именных)

MInfo

GeneralUnique ID                   : 212392781011617292170933641040077439425 (0x9FC95C97DC16A81CD706DE1FA572C1C1)Complete name               : G:\Bobropandavar\The Death of Superman (2018) UHD BDRemux 2160p Bobropandavar.mkvFormat                      : MatroskaFormat version              : Version 4 / Version 2File size                   : 44.0 GiBDuration                    : 1 h 20 minOverall bit rate            : 77.9 Mb/sEncoded date                : UTC 2018-08-14 12:05:23Writing application         : mkvmerge v25.0.0 ('Prog Noir') 64-bitWriting library             : libebml v1.3.6 + libmatroska v1.4.9Cover                       : YesAttachments                 : cover.jpg
VideoID : 1Format : HEVCFormat/Info : High Efficiency Video CodingCommercial name : HDR10Format profile : Main 10@L5.1@HighCodec ID : V_MPEGH/ISO/HEVCDuration : 1 h 20 minBit rate : 70.9 Mb/sWidth : 3 840 pixelsHeight : 2 160 pixelsDisplay aspect ratio : 16:9Frame rate mode : ConstantFrame rate : 23.976 (24000/1001) FPSColor space : YUVChroma subsampling : 4:2:0 (Type 2)Bit depth : 10 bitsBits/(Pixel*Frame) : 0.357Stream size : 40.1 GiB (91%)Writing library : ATEME Titan File 3.8.16 (4.8.16.0)Default : YesForced : NoColor range : LimitedColor primaries : BT.2020Transfer characteristics : PQMatrix coefficients : BT.2020 non-constantMastering display color pri : Display P3Mastering display luminance : min: 0.0050 cd/m2, max: 4000 cd/m2Maximum Content Light Level : 901 cd/m2Maximum Frame-Average Light : 402 cd/m2
Audio #1ID : 2Format : DTSFormat/Info : Digital Theater SystemsFormat profile : MA / CoreCodec ID : A_DTSDuration : 1 h 20 minBit rate mode : Variable / ConstantBit rate : 2 114 kb/s / 1 509 kb/sChannel(s) : 6 channelsChannel positions : Front: L C R, Side: L R, LFESampling rate : 48.0 kHzFrame rate : 93.750 FPS (512 SPF)Bit depth : 16 bitsCompression mode : Lossless / LossyStream size : 1.19 GiB (3%)Title : ZM-ShowLanguage : RussianDefault : YesForced : No
Audio #2ID : 3Format : DTSFormat/Info : Digital Theater SystemsFormat profile : MA / CoreCodec ID : A_DTSDuration : 1 h 20 minBit rate mode : Variable / ConstantBit rate : 2 118 kb/s / 1 509 kb/sChannel(s) : 6 channelsChannel positions : Front: L C R, Side: L R, LFESampling rate : 48.0 kHzFrame rate : 93.750 FPS (512 SPF)Bit depth : 16 bitsCompression mode : Lossless / LossyStream size : 1.20 GiB (3%)Title : Saint-Sound TVLanguage : RussianDefault : NoForced : No
Audio #3ID : 4Format : AC-3Format/Info : Audio Coding 3Commercial name : Dolby DigitalCodec ID : A_AC3Duration : 1 h 20 minBit rate mode : ConstantBit rate : 192 kb/sChannel(s) : 2 channelsChannel positions : Front: L RSampling rate : 48.0 kHzFrame rate : 31.250 FPS (1536 SPF)Bit depth : 16 bitsCompression mode : LossyStream size : 111 MiB (0%)Title : HDRezka StudioLanguage : RussianService kind : Complete MainDefault : NoForced : No
Audio #4ID : 5Format : AC-3Format/Info : Audio Coding 3Commercial name : Dolby DigitalCodec ID : A_AC3Duration : 1 h 20 minBit rate mode : ConstantBit rate : 192 kb/sChannel(s) : 2 channelsChannel positions : Front: L RSampling rate : 48.0 kHzFrame rate : 31.250 FPS (1536 SPF)Bit depth : 16 bitsCompression mode : LossyStream size : 111 MiB (0%)Title : Flarrow FilmsLanguage : RussianService kind : Complete MainDefault : NoForced : No
Audio #5ID : 6Format : DTSFormat/Info : Digital Theater SystemsFormat profile : MA / CoreCodec ID : A_DTSDuration : 1 h 20 minBit rate mode : Variable / ConstantBit rate : 2 318 kb/s / 1 509 kb/sChannel(s) : 6 channelsChannel positions : Front: L C R, Side: L R, LFESampling rate : 48.0 kHzFrame rate : 93.750 FPS (512 SPF)Bit depth : 24 bitsCompression mode : Lossless / LossyStream size : 1.31 GiB (3%)Title : EnglishLanguage : EnglishDefault : NoForced : No
Text #1ID : 7Format : UTF-8Codec ID : S_TEXT/UTF8Codec ID/Info : UTF-8 Plain TextDuration : 1 h 16 minBit rate : 96 b/sCount of elements : 799Stream size : 53.8 KiB (0%)Title : UGN SUBZ TranslatorsLanguage : RussianDefault : YesForced : No
Text #2ID : 8Format : UTF-8Codec ID : S_TEXT/UTF8Codec ID/Info : UTF-8 Plain TextDuration : 1 h 19 minBit rate : 48 b/sCount of elements : 809Stream size : 28.6 KiB (0%)Title : EnglishLanguage : EnglishDefault : NoForced : No
Menu00:00:00.000 : en:Chapter 100:09:32.071 : en:Chapter 200:20:02.409 : en:Chapter 300:32:29.489 : en:Chapter 400:40:17.706 : en:Chapter 500:51:40.055 : en:Chapter 601:03:31.307 : en:Chapter 701:10:59.797 : en:Chapter 801:17:04.161 : en:Chapter 9

Скриншоты


-МОИ РАЗДАЧИ-НЕ ЗАБЫВАЕМ БЛАГОДАРИТЬ НАЖАТИЕМ КНОПОЧКИ "СПАСИБО"
Вы не можете начинать темы
Вы не можете отвечать на сообщения
Вы не можете редактировать свои сообщения
Вы не можете удалять свои сообщения
Вы не можете голосовать в опросах
Вы не можете прикреплять файлы к сообщениям
Вы можете скачивать файлы
!ВНИМАНИЕ!

Сайт не предоставляет электронные версии произведений, а занимается лишь коллекционированием и каталогизацией ссылок, присылаемых и публикуемых на форуме нашими читателями. Если вы являетесь правообладателем какого-либо представленного материала и не желаете, чтобы ссылка на него находилась в нашем каталоге, свяжитесь с нами, и мы незамедлительно удалим ее. Файлы для обмена на трекере предоставлены пользователями сайта, и администрация не несет ответственности за их содержание. Просьба не заливать файлы, защищенные авторскими правами, а также файлы нелегального содержания!

Искали программы, игры, дополнения, музыка mp3, аниме, аудио книги, журналы? Добро пожаловать на свободный торрент трекер Torrents, у нас можно скачать бесплатно, без смс и регистрации и прочих ограничений лучшие, отборные сборки программ, игр. Скачать торрентом не составит труда даже не опытному пользователю. Раздачи ежедневно обновляются, только лучшие и качественные раздачи, подробные описания и скриншоты. Огромная коллекция программ для работы со звуком, графикой, дизайном, а так же множество плагинов и инструментов к ним с подробной инструкцией и рекомендациями. Прошивки для навигаторов, карты. Разнообразные игры, для Windows, Linux. В коллекцие есть и старые игры любых жанров, Rpg, Action, Shooter, strategy Множество дополнений, модификаций, сценариев для популярных игр в жанре экш, рпг, гонки, стратегии, логические игры. Множество аддонов и сценариев для Microsoft Flight Simulator Большая коллекция книг, учебников. Если нет возможности купить печатное издание - смело скачивайте цифровую версию книги или, быть может, журнала. Не любите читать - можно загрузить бесплатно аудикнигу. Для веб дизайнеров и программистов так же найдется множество специализированного софта, таких как: редакторы с подсветкой, среды программирования, компоненты, системы управления базами данных, разнообразные скрипты и шаблоны. Не так давно у нас появился материал для автолюбителей и владельцев мото - оригинальные и неоригинальные каталоги запчастей, книги и журналы по ремонту и обслуживанию, видеоуроки, статьи по чип тюнингу, прошивкам. Процедура получения контента элементарная, достаточно просто скачать торрент файл и добавить его в загрузку в вашем торрент клиенте. Если у вас нет специального торрент клиента, вы можете его скачать у нас.