Смерть Супермена / The Death of Superman (Джейк Касторена / Jake Castorena, Сэм Лью / Sam Liu) [2018, США, мультфильм, фантастика, боевик, WEB-DL 1080p] MVO [Saint-Sound TV) 

Цитировать
Смерть Супермена / The Death of Superman
Страна: США
Жанр: мультфильм, фантастика, боевик
Продолжительность: 01:21:00
Год выпуска: 2018
Перевод: Любительский (многоголосый закадровый)[Saint-Sound TV]
Русские субтитры: нет
Режиссёр: Джейк Касторена / Jake Castorena, Сэм Лью / Sam Liu
Роли озвучивали: Розарио Доусон, Джерри О`Коннелл, Рэйн Уилсон, Шемар Мур, Натан Филлион, Мэтт Лантер, Патрик Фабиан, Джейсон О’Мара, Роки Кэрролл, Кристофер Горам
Описание: Кларк Кент подумывает о том, чтобы раскрыть возлюбленной, Лоис Лэйн, свой самый большой секрет - что он является Суперменом. В это же время на Землю прибывает страшное чудовище Думсдэй, обладающее невероятной силой и злобой. Все супергерои в составе Лиги справедливости с трудом сдерживают монстра, поэтому Супермену придётся отложить свои личные дела и постараться помочь товарищам победить врага.
Семпл: http://multi-up.com/1205233
Качество: WEB-DL 1080p
Формат: MKV
Видео: AVC, 1920x1078, 23.976 fps, 5035 kbps
Аудио: AC-3, 48,0 KHz, 2 ch ,192 kbps[RUS]
Аудио 2: AC-3, 48,0 KHz, 6 ch ,384 kbps[ENG]
Субтитры: Нету

Подробные технические данные

Продолжительность                        : 1 ч. 21 м.Общий поток                              : 5725 Кбит/секНазвание фильма                          : The.Death.of.Superman.2018.1080p.WEB-DL.DD5.1.H264-FGTДата кодирования                         : UTC 2018-08-02 12:32:21Программа кодирования                    : mkvmerge v6.1.0 ('Old Devil') built on Mar  2 2013 14:32:37Библиотека кодирования                   : libebml v1.3.0 + libmatroska v1.4.0
ВидеоИдентификатор : 1Формат : AVCФормат/Информация : Advanced Video CodecПрофиль формата : High@L4Настройки формата : CABAC / 4 Ref FramesПараметр CABAC формата : ДаПараметр RefFrames формата : 4 кадраИдентификатор кодека : V_MPEG4/ISO/AVCПродолжительность : 1 ч. 21 м.Битрейт : 5035 Кбит/секШирина : 1920 пикселейВысота : 1078 пикселейСоотношение сторон : 16:9Режим частоты кадров : ПостоянныйЧастота кадров : 23,976 (24000/1001) кадра/секЦветовое пространство : YUVСубдискретизация насыщенности : 4:2:0Битовая глубина : 8 битТип развёртки : ПрогрессивнаяБит/(Пиксели*Кадры) : 0.101Размер потока : 2,85 Гбайт (88%)Заголовок : The.Death.of.Superman.2018.1080p.WEB-DL.DD5.1.H264-FGTЯзык : EnglishDefault : ДаForced : НетЦветовой диапазон : LimitedОсновные цвета : BT.709Характеристики трансфера : BT.709Коэффициенты матрицы : BT.709
Аудио #1Идентификатор : 2Формат : AC-3Формат/Информация : Audio Coding 3Идентификатор кодека : A_AC3Продолжительность : 1 ч. 21 м.Вид битрейта : ПостоянныйБитрейт : 192 Кбит/секКаналы : 2 каналаРасположение каналов : Front: L RЧастота : 48,0 КГцЧастота кадров : 31,250 кадров/сек (1536 SPF)Битовая глубина : 16 битМетод сжатия : С потерямиРазмер потока : 111 Мбайт (3%)Язык : RussianServiceKind/String : Complete MainDefault : ДаForced : Да
Аудио #2Идентификатор : 3Формат : AC-3Формат/Информация : Audio Coding 3Идентификатор кодека : A_AC3Продолжительность : 1 ч. 21 м.Вид битрейта : ПостоянныйБитрейт : 384 Кбит/секКаналы : 6 каналовРасположение каналов : Front: L C R, Side: L R, LFEЧастота : 48,0 КГцЧастота кадров : 31,250 кадров/сек (1536 SPF)Битовая глубина : 16 битМетод сжатия : С потерямиРазмер потока : 223 Мбайт (7%)Заголовок : The.Death.of.Superman.2018.1080p.WEB-DL.DD5.1.H264-FGTЯзык : EnglishServiceKind/String : Complete MainDefault : НетForced : Нет

Скриншоты

Вы не можете начинать темы
Вы не можете отвечать на сообщения
Вы не можете редактировать свои сообщения
Вы не можете удалять свои сообщения
Вы не можете голосовать в опросах
Вы не можете прикреплять файлы к сообщениям
Вы можете скачивать файлы
!ВНИМАНИЕ!

Сайт не предоставляет электронные версии произведений, а занимается лишь коллекционированием и каталогизацией ссылок, присылаемых и публикуемых на форуме нашими читателями. Если вы являетесь правообладателем какого-либо представленного материала и не желаете, чтобы ссылка на него находилась в нашем каталоге, свяжитесь с нами, и мы незамедлительно удалим ее. Файлы для обмена на трекере предоставлены пользователями сайта, и администрация не несет ответственности за их содержание. Просьба не заливать файлы, защищенные авторскими правами, а также файлы нелегального содержания!

Искали программы, игры, дополнения, музыка mp3, аниме, аудио книги, журналы? Добро пожаловать на свободный торрент трекер Torrents, у нас можно скачать бесплатно, без смс и регистрации и прочих ограничений лучшие, отборные сборки программ, игр. Скачать торрентом не составит труда даже не опытному пользователю. Раздачи ежедневно обновляются, только лучшие и качественные раздачи, подробные описания и скриншоты. Огромная коллекция программ для работы со звуком, графикой, дизайном, а так же множество плагинов и инструментов к ним с подробной инструкцией и рекомендациями. Прошивки для навигаторов, карты. Разнообразные игры, для Windows, Linux. В коллекцие есть и старые игры любых жанров, Rpg, Action, Shooter, strategy Множество дополнений, модификаций, сценариев для популярных игр в жанре экш, рпг, гонки, стратегии, логические игры. Множество аддонов и сценариев для Microsoft Flight Simulator Большая коллекция книг, учебников. Если нет возможности купить печатное издание - смело скачивайте цифровую версию книги или, быть может, журнала. Не любите читать - можно загрузить бесплатно аудикнигу. Для веб дизайнеров и программистов так же найдется множество специализированного софта, таких как: редакторы с подсветкой, среды программирования, компоненты, системы управления базами данных, разнообразные скрипты и шаблоны. Не так давно у нас появился материал для автолюбителей и владельцев мото - оригинальные и неоригинальные каталоги запчастей, книги и журналы по ремонту и обслуживанию, видеоуроки, статьи по чип тюнингу, прошивкам. Процедура получения контента элементарная, достаточно просто скачать торрент файл и добавить его в загрузку в вашем торрент клиенте. Если у вас нет специального торрент клиента, вы можете его скачать у нас.