Отряд Самоубийц: Адская Расплата / Suicide Squad: Hell to Pay (Сэм Лью) [2018, США, Анимация, Экшн, BDRip 720p] Rus Sub 

Цитировать
Отряд Самоубийц: Адская Расплата / Suicide Squad: Hell to Pay
Страна: США
Жанр: Анимация, Экшн
Продолжительность: 01:26:05
Год выпуска: 2018
Перевод: Субтитры [UGN SUBZ Translators] !18+!
Русские субтитры: есть
Режиссёр: Сэм Лью
Роли озвучивали: Кристиан Слэйтер, Си Томас Хауэлл, Тара Стронг, Ванесса Уильямс, Даня Рамирес, Билли Браун, Лиам МакИнтайр, Кристин Бауэр, Мэттью Мерсер, Гидеон Эмери
Описание: Оперативная Группа X нацелена найти мощный мистический предмет, который им предстоит украсть рискуя своими жизнями.
Семпл: http://multi-up.com/1192848
Качество: BDRip 720p
Формат: MKV
Видео: AVC, 1280x720, 23.976 fps, 4072 kbps
Аудио: AC-3, 48,0 KHz, 6 ch, 384 kbps
Субтитры: русские

Подробные технические данные

ОбщееУникальный идентификатор                 : 188949054277806099599675159301160845293 (0x8E26439FF8CEEC73B5D5C8FBD95A3FED)Полное имя                               : Suicide Squad Hell to Pay.2018.720p.WEB-DL.H264.AC3-EVO[UGN].mkvФормат                                   : MatroskaВерсия формата                           : Version 4 / Version 2Размер файла                             : 2,68 ГбайтПродолжительность                        : 1 ч. 26 м.Общий поток                              : 4458 Кбит/секНазвание фильма                          : EVOДата кодирования                         : UTC 2018-03-29 16:01:21Программа кодирования                    : mkvmerge v18.0.0 ('Apricity') 64-bitБиблиотека кодирования                   : libebml v1.3.5 + libmatroska v1.4.8
ВидеоИдентификатор : 2Формат : AVCФормат/Информация : Advanced Video CodecПрофиль формата : High@L3.1Настройки формата : 2 Ref FramesПараметр CABAC формата : НетПараметр RefFrames формата : 2 кадраИдентификатор кодека : V_MPEG4/ISO/AVCПродолжительность : 1 ч. 26 м.Битрейт : 4072 Кбит/секШирина : 1280 пикселейВысота : 720 пикселейСоотношение сторон : 16:9Режим частоты кадров : ПостоянныйЧастота кадров : 23,976 кадра/секЦветовое пространство : YUVСубдискретизация насыщенности : 4:2:0Битовая глубина : 8 битТип развёртки : ПрогрессивнаяБит/(Пиксели*Кадры) : 0.184Размер потока : 2,45 Гбайт (91%)Язык : EnglishDefault : ДаForced : НетЦветовой диапазон : LimitedОсновные цвета : BT.709Характеристики трансфера : BT.709Коэффициенты матрицы : BT.709
АудиоИдентификатор : 3Формат : AC-3Формат/Информация : Audio Coding 3Идентификатор кодека : A_AC3Продолжительность : 1 ч. 26 м.Вид битрейта : ПостоянныйБитрейт : 384 Кбит/секКаналы : 6 каналовРасположение каналов : Front: L C R, Side: L R, LFEЧастота : 48,0 КГцЧастота кадров : 31,250 кадров/сек (1536 SPF)Битовая глубина : 16 битМетод сжатия : С потерямиРазмер потока : 236 Мбайт (9%)Язык : EnglishServiceKind/String : Complete MainDefault : ДаForced : Нет
ТекстИдентификатор : 1Формат : UTF-8Идентификатор кодека : S_TEXT/UTF8Идентификатор кодека/Информация : UTF-8 Plain TextПродолжительность : 1 ч. 22 м.Битрейт : 86 бит/секElementCount : 847Размер потока : 52,1 Кбайт (0%)Язык : RussianDefault : ДаForced : Нет
Меню00:00:00.000 : en:100:10:21.000 : en:200:19:57.000 : en:300:35:58.000 : en:400:48:13.000 : en:500:55:38.000 : en:601:01:51.000 : en:701:15:39.000 : en:801:22:49.000 : en:9

Скриншоты

Вы не можете начинать темы
Вы не можете отвечать на сообщения
Вы не можете редактировать свои сообщения
Вы не можете удалять свои сообщения
Вы не можете голосовать в опросах
Вы не можете прикреплять файлы к сообщениям
Вы можете скачивать файлы
!ВНИМАНИЕ!

Сайт не предоставляет электронные версии произведений, а занимается лишь коллекционированием и каталогизацией ссылок, присылаемых и публикуемых на форуме нашими читателями. Если вы являетесь правообладателем какого-либо представленного материала и не желаете, чтобы ссылка на него находилась в нашем каталоге, свяжитесь с нами, и мы незамедлительно удалим ее. Файлы для обмена на трекере предоставлены пользователями сайта, и администрация не несет ответственности за их содержание. Просьба не заливать файлы, защищенные авторскими правами, а также файлы нелегального содержания!

Искали программы, игры, дополнения, музыка mp3, аниме, аудио книги, журналы? Добро пожаловать на свободный торрент трекер Torrents, у нас можно скачать бесплатно, без смс и регистрации и прочих ограничений лучшие, отборные сборки программ, игр. Скачать торрентом не составит труда даже не опытному пользователю. Раздачи ежедневно обновляются, только лучшие и качественные раздачи, подробные описания и скриншоты. Огромная коллекция программ для работы со звуком, графикой, дизайном, а так же множество плагинов и инструментов к ним с подробной инструкцией и рекомендациями. Прошивки для навигаторов, карты. Разнообразные игры, для Windows, Linux. В коллекцие есть и старые игры любых жанров, Rpg, Action, Shooter, strategy Множество дополнений, модификаций, сценариев для популярных игр в жанре экш, рпг, гонки, стратегии, логические игры. Множество аддонов и сценариев для Microsoft Flight Simulator Большая коллекция книг, учебников. Если нет возможности купить печатное издание - смело скачивайте цифровую версию книги или, быть может, журнала. Не любите читать - можно загрузить бесплатно аудикнигу. Для веб дизайнеров и программистов так же найдется множество специализированного софта, таких как: редакторы с подсветкой, среды программирования, компоненты, системы управления базами данных, разнообразные скрипты и шаблоны. Не так давно у нас появился материал для автолюбителей и владельцев мото - оригинальные и неоригинальные каталоги запчастей, книги и журналы по ремонту и обслуживанию, видеоуроки, статьи по чип тюнингу, прошивкам. Процедура получения контента элементарная, достаточно просто скачать торрент файл и добавить его в загрузку в вашем торрент клиенте. Если у вас нет специального торрент клиента, вы можете его скачать у нас.