Трон эльфов / Throne of Elves (И Гэ / Yi Ge, Сун Юэфэн / Yuefeng Song) [2016, Китай, США, мультфильм, фэнтези, приключения, BDRip 720p] Dub + Sub (Ger, Eng) + Original (Eng) 

Цитировать
Трон эльфов / Throne of Elves Страна: Китай, США
Жанр: мультфильм, фэнтези, приключения
Продолжительность: 01:38:55
Год выпуска: 2016
Перевод: Профессиональный (дублированный)
Русские субтитры: нет
Режиссёр: И Гэ / Yi Ge, Сун Юэфэн / Yuefeng Song
Роли озвучивали: Эшли Боеттчер, Гилберт Боус, Гэвин Хаммон, Джули Натансон, Джон Олсон, Райан Поттер, Енн Рейтел, Кевин Майкл Ричардсон, Аника Нони Роуз, Стефани Ше
Описание: Юный воин Ламберт получает приглашение на свадьбу принцессы Страны Эльфов. Обрадованный возможностью вновь увидеться с молодой эльфийкой Лийей, он собирается в путь на воздушном корабле. В краю эльфов между тем не все спокойно: владычица Темных Эльфов Елена планирует нарушить свадебную церемонию, чтобы, застав врасплох придворных, захватить древний кристалл Черного Дракона.
Дополнительная информация: | IMDB | КиноПоиск | Сэмпл |
Качество: BDRip 720p
Формат: MKV
Видео: MPEG-4 AVC Video 5500 Kbps 1280x720 / 23,976 fps
Аудио: Dolby Digital Audio Russian 384 kbps 5.1 / 48 kHz
Аудио 2: Dolby Digital Audio English 640 kbps 5.1 / 48 kHz
Субтитры: Английские, немецкие
Дополнительно: Есть навигация по главам (всего 12 глав)

Подробные технические данные

Формат                                   : MatroskaВерсия формата                           : Version 4 / Version 2Размер файла                             : 4,51 ГбайтПродолжительность                        : 1 ч. 38 м.Общий поток                              : 6526 Кбит/секНазвание фильма                          : THRONE_OF_ELVES_(2016)_BDRIP_720P -BLUEBIRDДата кодирования                         : UTC 2018-03-09 08:19:39Программа кодирования                    : mkvmerge v20.0.0 ('I Am The Sun') 64-bitБиблиотека кодирования                   : libebml v1.3.5 + libmatroska v1.4.8
ВидеоИдентификатор : 1Формат : AVCФормат/Информация : Advanced Video CodecПрофиль формата : High@L4.1Настройки формата : CABAC / 9 Ref FramesПараметр CABAC формата : ДаПараметр RefFrames формата : 9 кадровИдентификатор кодека : V_MPEG4/ISO/AVCПродолжительность : 1 ч. 38 м.Битрейт : 5500 Кбит/секШирина : 1280 пикселейВысота : 720 пикселейСоотношение сторон : 16:9Режим частоты кадров : ПостоянныйЧастота кадров : 23,976 (24000/1001) кадра/секЦветовое пространство : YUVСубдискретизация насыщенности : 4:2:0Битовая глубина : 8 битТип развёртки : ПрогрессивнаяБит/(Пиксели*Кадры) : 0.249Размер потока : 3,71 Гбайт (82%)Заголовок : THRN_F_LVS_(2016)_BDRIP_720P -HDChinaБиблиотека кодирования : x264 core 148 r2744kMod b97ae06Настройки программы : cabac=1 / ref=9 / deblock=1:-1:-1 / analyse=0x3:0x133 / me=umh / subme=11 / psy=1 / fade_compensate=0.00 / psy_rd=0.80:0.00 / mixed_ref=1 / me_range=48 / chroma_me=1 / trellis=2 / 8x8dct=1 / cqm=0 / deadzone=21,11 / fast_pskip=0 / chroma_qp_offset=-2 / threads=22 / lookahead_threads=3 / sliced_threads=0 / nr=0 / decimate=0 / interlaced=0 / bluray_compat=0 / constrained_intra=0 / bframes=8 / b_pyramid=2 / b_adapt=2 / b_bias=0 / direct=3 / weightb=1 / open_gop=0 / weightp=2 / keyint=240 / keyint_min=2 / scenecut=40 / intra_refresh=0 / rc_lookahead=0 / rc=2pass / mbtree=0 / bitrate=5500 / ratetol=1.0 / qcomp=0.70 / qpmin=0 / qpmax=69 / qpstep=4 / cplxblur=20.0 / qblur=0.5 / vbv_maxrate=50000 / vbv_bufsize=30000 / nal_hrd=none / filler=0 / ip_ratio=1.30 / pb_ratio=1.20 / aq=3:1.10Язык : ChineseDefault : ДаForced : Нет
Аудио #1Идентификатор : 2Формат : AC-3Формат/Информация : Audio Coding 3Идентификатор кодека : A_AC3Продолжительность : 1 ч. 38 м.Вид битрейта : ПостоянныйБитрейт : 384 Кбит/секКаналы : 6 каналовРасположение каналов : Front: L C R, Side: L R, LFEЧастота : 48,0 КГцЧастота кадров : 31,250 кадров/сек (1536 SPF)Битовая глубина : 16 битМетод сжатия : С потерямиРазмер потока : 272 Мбайт (6%)Заголовок : iTunesЯзык : RussianServiceKind/String : Complete MainDefault : ДаForced : Нет
Аудио #2Идентификатор : 3Формат : AC-3Формат/Информация : Audio Coding 3Идентификатор кодека : A_AC3Продолжительность : 1 ч. 38 м.Вид битрейта : ПостоянныйБитрейт : 640 Кбит/секКаналы : 6 каналовРасположение каналов : Front: L C R, Side: L R, LFEЧастота : 48,0 КГцЧастота кадров : 31,250 кадров/сек (1536 SPF)Битовая глубина : 16 битМетод сжатия : С потерямиРазмер потока : 453 Мбайт (10%)Язык : EnglishServiceKind/String : Complete MainDefault : НетForced : Нет
Текст #1Идентификатор : 4Формат : UTF-8Идентификатор кодека : S_TEXT/UTF8Идентификатор кодека/Информация : UTF-8 Plain TextЯзык : EnglishDefault : НетForced : Нет
Текст #2Идентификатор : 5Формат : UTF-8Идентификатор кодека : S_TEXT/UTF8Идентификатор кодека/Информация : UTF-8 Plain TextЯзык : GermanDefault : НетForced : Нет
Меню00:00:00.000 : en:00:00:00.00000:08:31.594 : en:00:08:31.59400:17:43.896 : en:00:17:43.89600:23:41.795 : en:00:23:41.79500:31:25.592 : en:00:31:25.59200:39:37.083 : en:00:39:37.08300:47:18.461 : en:00:47:18.46100:58:01.395 : en:00:58:01.39501:05:58.371 : en:01:05:58.37101:14:54.156 : en:01:14:54.15601:23:34.718 : en:01:23:34.71801:29:48.550 : en:01:29:48.550

Скриншоты

Вы не можете начинать темы
Вы не можете отвечать на сообщения
Вы не можете редактировать свои сообщения
Вы не можете удалять свои сообщения
Вы не можете голосовать в опросах
Вы не можете прикреплять файлы к сообщениям
Вы можете скачивать файлы
!ВНИМАНИЕ!

Сайт не предоставляет электронные версии произведений, а занимается лишь коллекционированием и каталогизацией ссылок, присылаемых и публикуемых на форуме нашими читателями. Если вы являетесь правообладателем какого-либо представленного материала и не желаете, чтобы ссылка на него находилась в нашем каталоге, свяжитесь с нами, и мы незамедлительно удалим ее. Файлы для обмена на трекере предоставлены пользователями сайта, и администрация не несет ответственности за их содержание. Просьба не заливать файлы, защищенные авторскими правами, а также файлы нелегального содержания!

Искали программы, игры, дополнения, музыка mp3, аниме, аудио книги, журналы? Добро пожаловать на свободный торрент трекер Torrents, у нас можно скачать бесплатно, без смс и регистрации и прочих ограничений лучшие, отборные сборки программ, игр. Скачать торрентом не составит труда даже не опытному пользователю. Раздачи ежедневно обновляются, только лучшие и качественные раздачи, подробные описания и скриншоты. Огромная коллекция программ для работы со звуком, графикой, дизайном, а так же множество плагинов и инструментов к ним с подробной инструкцией и рекомендациями. Прошивки для навигаторов, карты. Разнообразные игры, для Windows, Linux. В коллекцие есть и старые игры любых жанров, Rpg, Action, Shooter, strategy Множество дополнений, модификаций, сценариев для популярных игр в жанре экш, рпг, гонки, стратегии, логические игры. Множество аддонов и сценариев для Microsoft Flight Simulator Большая коллекция книг, учебников. Если нет возможности купить печатное издание - смело скачивайте цифровую версию книги или, быть может, журнала. Не любите читать - можно загрузить бесплатно аудикнигу. Для веб дизайнеров и программистов так же найдется множество специализированного софта, таких как: редакторы с подсветкой, среды программирования, компоненты, системы управления базами данных, разнообразные скрипты и шаблоны. Не так давно у нас появился материал для автолюбителей и владельцев мото - оригинальные и неоригинальные каталоги запчастей, книги и журналы по ремонту и обслуживанию, видеоуроки, статьи по чип тюнингу, прошивкам. Процедура получения контента элементарная, достаточно просто скачать торрент файл и добавить его в загрузку в вашем торрент клиенте. Если у вас нет специального торрент клиента, вы можете его скачать у нас.